˂
˃
Tarqatmalar statistikasi
Ko‘chirmoqdaman: [ 3 ]
Ko‘chirib bo‘ldim: [ 20 ]
 
     
 
 

UmarShoh ®

Jins:
Yigit
Staj:
1 yil 7 oy
Xabarlar:
402
Taqiq:

-O'yinchoqlar Olami 4 | История игрушек 4 | Toy Story 4- -Chiqqan yili: 2019
Davlat: AQSH
Janr: Multfilm, Komediya, Oilaviy.
Davomiyligi: 01:40:03
Tarjima: Professional (dublyaj qilingan) | My5
Tarjima 2: Professional (dublyaj qilingan)| Bolajon
- -Rejissyor: Josh Cooley-Rollarni ovozlashtirganlar: Tom Hanks, Tim Allen, Annie Potts, Tony Hale, Keegan-Michael Key, Madeleine McGraw, Christina Hendricks, Jordan Peel, Keanu Reeves, Ellie Matsumura- -Tavsif: Astronavt Buz, kovboy Vidi, Slinki iti, tiranozavr
Reks va o'yinchoqlarning butun jamoasi yana birga bo'lishdi va ular har doimgidan ham sarguzashtga tayyor.
Endi kollejga borganidan beri, o'yinchoqlar bolalar bog'chasiga bormoqchi bo'lgan yangi singlisi Bonining uyiga joylashdi.
Bolalar bog'chasidagi birinchi kun quvnoq sayohatlar,
yangi o'yinchoqlar bilan tanishish, ba'zi eski do'stlar bilan uchrashish va
hatto romantik hikoyani o'tkazish uchun joy bo'lgan bir qator tadbirlar boshlanishini belgilaydi...
-Videoning sifati: BluRay 1080p Hevc 10bit
Video format: MKV
Video: HEVC, 1858kbps, 1920x808, 23.976 FPS
Audio 1: AAC, 8 ch, 280kbps | Inglizcha
Audio 2: MP3, 44100Hz 2ch, 128kbps | O'zbekcha (Bolajon)
Audio 3: MP3, 44100Hz 2ch, 128kbps | O'zbekcha (My5)
Subtitrlar: Inglizcha
-

Media Info

General
Unique ID : 145954566201363903386295187510791504320 (0x6DCDD3B36F9B9F8B6929CB53C10401C0)
Complete name : D:\Media\Multfilmlar\Multfilmlar\061) Toy Story 4 [ 2019 BluRay 1080p x265 10 bit ] O`zbek tilida.mkv
Format : Matroska
Format version : Version 4
File size : 1.67 GiB
Duration : 1 h 40 min
Overall bit rate : 2 396 kb/s
Movie name : PSArips.com | Toy.Story.4.2019.1080p.10bit.BluRay.8CH.x265.HEVC-PSA
Encoded date : UTC 2019-10-07 05:13:42
Writing application : mkvmerge v38.0.0 ('The Silent Type') 64-bit
Writing library : libebml v1.3.9 + libmatroska v1.5.2
Video
ID : 1
Format : HEVC
Format/Info : High Efficiency Video Coding
Format profile : Main 10@L4@Main
Codec ID : V_MPEGH/ISO/HEVC
Duration : 1 h 40 min
Bit rate : 1 858 kb/s
Width : 1 920 pixels
Height : 808 pixels
Display aspect ratio : 2.40:1
Frame rate mode : Constant
Frame rate : 23.976 (24000/1001) FPS
Color space : YUV
Chroma subsampling : 4:2:0
Bit depth : 10 bits
Bits/(Pixel*Frame) : 0.050
Stream size : 1.30 GiB (78%)
Default : Yes
Forced : No
Audio #1
ID : 2
Format : AAC LC SBR
Format/Info : Advanced Audio Codec Low Complexity with Spectral Band Replication
Commercial name : HE-AAC
Format settings : Explicit
Codec ID : A_AAC-2
Duration : 1 h 40 min
Bit rate : 280 kb/s
Channel(s) : 8 channels
Channel layout : C L R Ls Rs Lb Rb LFE
Sampling rate : 48.0 kHz
Frame rate : 23.438 FPS (2048 SPF)
Compression mode : Lossy
Delay relative to video : 31 ms
Stream size : 200 MiB (12%)
Title : Orginal
Language : English
Default : Yes
Forced : No
Audio #2
ID : 4
Format : MPEG Audio
Format version : Version 1
Format profile : Layer 3
Format settings : Joint stereo / MS Stereo
Codec ID : A_MPEG/L3
Codec ID/Hint : MP3
Duration : 1 h 40 min
Bit rate mode : Constant
Bit rate : 128 kb/s
Channel(s) : 2 channels
Sampling rate : 44.1 kHz
Frame rate : 38.281 FPS (1152 SPF)
Compression mode : Lossy
Stream size : 91.6 MiB (5%)
Title : Bolajon (UmarShoh_FL)
Writing library : LAME3.99.5
Language : Uzbek
Default : No
Forced : No
Audio #3
ID : 5
Format : MPEG Audio
Format version : Version 1
Format profile : Layer 3
Format settings : Joint stereo / MS Stereo
Codec ID : A_MPEG/L3
Codec ID/Hint : MP3
Duration : 1 h 40 min
Bit rate mode : Constant
Bit rate : 128 kb/s
Channel(s) : 2 channels
Sampling rate : 44.1 kHz
Frame rate : 38.281 FPS (1152 SPF)
Compression mode : Lossy
Stream size : 91.6 MiB (5%)
Title : My5 (UmarShoh_FL)
Writing library : LAME3.99.5
Language : Uzbek
Default : No
Forced : No
Text
ID : 3
Format : UTF-8
Codec ID : S_TEXT/UTF8
Codec ID/Info : UTF-8 Plain Text
Duration : 1 h 39 min
Bit rate : 64 b/s
Count of elements : 1807
Stream size : 47.2 KiB (0%)
Language : English
Default : Yes
Forced : No
.torrent yuklash

Yuqori tezlikda va bepul ko‘chirish!

Qanday yuklab olinadi? · Torrent nima o‘zi? · Reyting va cheklovlar

Profil ShX
Xabarlarni ko‘rsatish:    

Hozirgi vaqt: 15-Okt 03:34

Vaqtlar farqi: UTC + 5



Siz mavzu yaratishingiz mumkin emas
Siz xabarlarga javob qaytarishingiz mumkin emas
Siz o‘z xabarlaringizni tahrirlashingiz mumkin emas
Siz o‘z xabarlaringizni o‘chirishingiz mumkin emas
Siz so‘rovlarda ovoz berishingiz mumkin emas
Siz xabalarga fayllarni biriktirishingiz mumkin emas
Siz fayllarni ko‘chirishingiz mumkin emas