˂
˃
Tarqatmalar statistikasi
Ko‘chirmoqdaman: [ 2 ]
Ko‘chirib bo‘ldim: [ 26 ]
 
     
 
 

gnom6862 ®

Jins:
Ko‘rsatilmagan
Staj:
1 yil 11 oy
Xabarlar:
4
Taqiq:

Toshkent voqeasi | Ташкентское дело | The Tashkent files
Chiqqan yili: 2019
Davlat: Hindiston
Janr: triller, tarixiy, detektiv
Davomiyligi: 02:19:13
Tarjima: Professional (dublyaj qilingan)
Rejissyor: Vivek Agnixotri
Rollarda: Nasiruddin Shoh, Mithun Chakraborti, Shveta Prasad, Pankaj Tripati, Vinay Pathax, Mandira Bedi, Rajesh Sharma, Prakash Belavadi, Ankur Rati, Prashant Kumar
Tavsif: 1966 yil yanvar. 1965 yil Ikkinchi Hindiston-Pokiston urushidan keyin SSSR tashabbusi bilan tomonlar Vazirlar Kengashi raisi Kosygin ishtirokida Toshkentdagi muzokaralar stoliga o'tirishdi. 10-yanvar kuni urushga chek qo'ygan Toshkent deklaratsiyasi imzolandi va ertasi kuni Hindiston bosh vaziri Lal Bxadur Shastri infarkt tufayli vafot etdi. Ko'p yillar o'tgach, bir guruh faollar Shastrining o'limi haqidagi haqiqatni - oddiy yurak xuruji bo'lganmi yoki fitna bormi, bosh vazir siyosiy qotillik qurboni bo'ladimi, yo'qmi, buni aniqlashga harakat qilmoqda.
Videoning sifati: WEBRip
Video format: MKV
Video: AVC, 1280 x 536, 25.000 fps, 1018 Kbps
Audio: AAC, 48000 Hz, 2 ch, 132 kbps, O'zbek tilida
Audio 2: AAC, 48000 Hz, 2 ch, 96 kbps, Hind tilida
Subtitrlar: SRT (Ingliz tilida (Muxed))

Media Info

General
Unique ID : 79711332891859291307583408326845994710 (0x3BF7D8238B0A78B3AF6ABFFDC07516D6)
Complete name : D:\Kino\Качества\The Tashkent Files 2019 Hindi 720p WEBRip x264 AAC ESubs - LOKiHD - Telly\The Tashkent Files 2019 Hindi 720p WEBRip x264 AAC ESubs - LOKiHD - Telly.mkv
Format : Matroska
Format version : Version 4
File size : 1.09 GiB
Duration : 2 h 19 min
Overall bit rate mode : Variable
Overall bit rate : 1 117 kb/s
Movie name : The Tashkent Files 2019 Hindi 720p WEBRip x264 AAC ESubs - LOKiHD - Telly
Encoded date : UTC 2019-08-16 05:25:09
Writing application : mkvmerge v33.1.0 ('Primrose') 32-bit
Writing library : libebml v1.3.7 + libmatroska v1.5.0
Video
ID : 1
Format : AVC
Format/Info : Advanced Video Codec
Format profile : High@L4.1
Format settings : CABAC / 4 Ref Frames
Format settings, CABAC : Yes
Format settings, Reference fra : 4 frames
Codec ID : V_MPEG4/ISO/AVC
Duration : 2 h 19 min
Bit rate mode : Variable
Bit rate : 1 018 kb/s
Maximum bit rate : 62.5 Mb/s
Width : 1 280 pixels
Height : 536 pixels
Display aspect ratio : 2.40:1
Frame rate mode : Constant
Frame rate : 25.000 FPS
Color space : YUV
Chroma subsampling : 4:2:0
Bit depth : 8 bits
Scan type : Progressive
Bits/(Pixel*Frame) : 0.059
Stream size : 1 013 MiB (91%)
Title : LOKiHD@Telly
Writing library : x264 core 157 r2935 545de2f
Encoding settings : cabac=1 / ref=5 / deblock=1:-1:-1 / analyse=0x3:0x113 / me=hex / subme=7 / psy=1 / psy_rd=1.00:0.15 / mixed_ref=1 / me_range=16 / chroma_me=1 / trellis=1 / 8x8dct=1 / cqm=0 / deadzone=21,11 / fast_pskip=1 / chroma_qp_offset=-3 / threads=6 / lookahead_threads=1 / sliced_threads=0 / nr=0 / decimate=1 / interlaced=0 / bluray_compat=1 / constrained_intra=0 / bframes=3 / b_pyramid=1 / b_adapt=1 / b_bias=0 / direct=1 / weightb=1 / open_gop=0 / weightp=1 / keyint=250 / keyint_min=1 / scenecut=40 / intra_refresh=0 / rc_lookahead=40 / rc=2pass / mbtree=1 / bitrate=1018 / ratetol=1.0 / qcomp=0.60 / qpmin=0 / qpmax=69 / qpstep=4 / cplxblur=20.0 / qblur=0.5 / vbv_maxrate=62500 / vbv_bufsize=78125 / nal_hrd=vbr / filler=0 / ip_ratio=1.40 / aq=1:1.00
Language : Hindi
Default : Yes
Forced : Yes
Audio
ID : 2
Format : AAC LC
Format/Info : Advanced Audio Codec Low Complexity
Codec ID : A_AAC-2
Duration : 2 h 19 min
Bit rate : 96.0 kb/s
Channel(s) : 2 channels
Channel layout : L R
Sampling rate : 48.0 kHz
Frame rate : 46.875 FPS (1024 SPF)
Compression mode : Lossy
Stream size : 96.6 MiB (9%)
Title : LOKiHD@Telly
Language : Hindi
Default : Yes
Forced : Yes
Text
ID : 3
Format : UTF-8
Codec ID : S_TEXT/UTF8
Codec ID/Info : UTF-8 Plain Text
Duration : 2 h 12 min
Bit rate : 78 b/s
Count of elements : 2114
Stream size : 76.2 KiB (0%)
Title : LOKiHD@Telly
Language : English
Default : Yes
Forced : Yes

Lavhalar

.torrent yuklash

Yuqori tezlikda va bepul ko‘chirish!

Qanday yuklab olinadi? · Torrent nima o‘zi? · Reyting va cheklovlar

Profil ShX
Xabarlarni ko‘rsatish:    

Hozirgi vaqt: 15-Okt 03:34

Vaqtlar farqi: UTC + 5



Siz mavzu yaratishingiz mumkin emas
Siz xabarlarga javob qaytarishingiz mumkin emas
Siz o‘z xabarlaringizni tahrirlashingiz mumkin emas
Siz o‘z xabarlaringizni o‘chirishingiz mumkin emas
Siz so‘rovlarda ovoz berishingiz mumkin emas
Siz xabalarga fayllarni biriktirishingiz mumkin emas
Siz fayllarni ko‘chirishingiz mumkin emas