˂
˃
Tarqatmalar statistikasi
Ko‘chiraman: [ 1 ]
Ko‘chirmoqdaman: [ 3 ]
Ko‘chirib bo‘ldim: [ 32 ]
 
     
 
 

N.U.R.I.K.B.E.K ®

Jins:
Yigit
Staj:
2 yil 1 oy
Xabarlar:
565

Qayerdan: Jizzax. Paxtakor

Taqiq:



--Chiqqan yili: 2019
Davlat: AQSH
Janr: Jangari, Sarguzasht.
Davomiyligi: 02:15:51
Tarjima: Professional MY5 O'zbek Tilida.
Tarjima 2: Professional Rus Tili iTunes--Rejissyor: David Leitch.
--Rollarda: Dueyn Jonson, Jeyson Stitem, Idris Elba, Vanessa Kirby, Helen Mirren, Ace Gonsales, Eddi Marsan, Eliana Sud, Cliff Curtis, Lori Pelenis Tuisano.--Tavsif: Lyuk Hobbs amerikalik elita maxsus agent bo'lib, u qulay sport kiyimlarini, katta pick-uplarni va sog'lom ovqatlanishni yaxshi ko'radi. Descard Show-ingliz pijonasi, sobiq razvedka xodimi, qimmatbaho kostyumlar, sport avtomobillari va uzun oyoqli go'zalliklarni afzal ko'radi. Bu ikki kishi bir-biridan nafratlanadi. Ammo agar kimdir o'z oilalariga tahdid qilsa, ular hamma narsaga tayyor. Hatto jamoada ishlash.--Videoning sifati: BDRip 1080p HEVC
Video format: MKV--Video: HVC1 1920x800 23.976fps 1 017 kb/s
Audio: MP3 48000Hz stereo 128kbps O'zbek Tili
Subtitrlar: Dolby AC3 48000Hz 6ch 384kbps Rus Tili--

Media Info

General
Format : Matroska
Format version : Version 4 / Version 2
File size : 1.45 GiB
Duration : 2 h 15 min
Overall bit rate : 1 531 kb/s
Encoded date : UTC 2019-10-01 20:43:43
Writing application : mkvmerge v15.0.0 ('Duel with the Devil') 64-bit
Writing library : libebml v1.3.5 + libmatroska v1.4.5
Video
ID : 1
Format : HEVC
Format/Info : High Efficiency Video Coding
Format profile : Main@L4@Main
Codec ID : V_MPEGH/ISO/HEVC
Duration : 2 h 15 min
Bit rate : 1 017 kb/s
Width : 1 920 pixels
Height : 800 pixels
Display aspect ratio : 2.40:1
Frame rate mode : Constant
Frame rate : 23.976 (24000/1001) FPS
Color space : YUV
Chroma subsampling : 4:2:0
Bit depth : 8 bits
Bits/(Pixel*Frame) : 0.028
Stream size : 988 MiB (66%)
Default : Yes
Forced : No
Color range : Limited
Audio #1
ID : 2
Format : MPEG Audio
Format version : Version 1
Format profile : Layer 3
Mode : Joint stereo
Mode extension : MS Stereo
Codec ID : A_MPEG/L3
Codec ID/Hint : MP3
Duration : 2 h 15 min
Bit rate mode : Constant
Bit rate : 128 kb/s
Channel(s) : 2 channels
Sampling rate : 48.0 kHz
Frame rate : 41.667 FPS (1152 SPF)
Compression mode : Lossy
Stream size : 124 MiB (8%)
Title : O'zbek Tili
Writing library : LAME3.99.5UUU ”;ЭЈ
Language : Uzbek
Default : Yes
Forced : No
Audio #2
ID : 3
Format : AC-3
Format/Info : Audio Coding 3
Format settings, Endianness : Big
Codec ID : A_AC3
Duration : 2 h 15 min
Bit rate mode : Constant
Bit rate : 384 kb/s
Channel(s) : 6 channels
Channel positions : Front: L C R, Side: L R, LFE
Sampling rate : 48.0 kHz
Frame rate : 31.250 FPS (1536 SPF)
Bit depth : 16 bits
Compression mode : Lossy
Stream size : 373 MiB (25%)
Title : Rus Tili
Language : Russian
Service kind : Complete Main
Default : No
Forced : No
LAVHALAR--
.torrent yuklash

Yuqori tezlikda va bepul ko‘chirish!

Qanday yuklab olinadi? · Torrent nima o‘zi? · Reyting va cheklovlar

Profil ShX
Xabarlarni ko‘rsatish:    

Hozirgi vaqt: 16-Dek 04:41

Vaqtlar farqi: UTC + 5



Siz mavzu yaratishingiz mumkin emas
Siz xabarlarga javob qaytarishingiz mumkin emas
Siz o‘z xabarlaringizni tahrirlashingiz mumkin emas
Siz o‘z xabarlaringizni o‘chirishingiz mumkin emas
Siz so‘rovlarda ovoz berishingiz mumkin emas
Siz xabalarga fayllarni biriktirishingiz mumkin emas
Siz fayllarni ko‘chirishingiz mumkin emas