˂
˃
Tarqatmalar statistikasi
Ko‘chirmoqdaman: [ 1 ]
Ko‘chirib bo‘ldim: [ 31 ]
 
     
 
 

N.U.R.I.K.B.E.K ®

Jins:
Yigit
Staj:
1 yil 11 oy
Xabarlar:
537

Qayerdan: Jizzax. Paxtakor

Taqiq:

Forsaj Hobbs va Shou
Форсаж: Хоббс и Шоу
Fast Furious Presents: Hobbs Shaw

--Chiqqan yili: 2019
Davlat: AQSH
Janr: Jangari, Sarguzasht.
Davomiyligi: 02:09:16
Tarjima: Professional MY5 O'zbek Tilida.--Rejissyor: David Leitch.--Rollarda: Dueyn Jonson, Jeyson Stitem, Idris Elba, Vanessa Kirby, Helen Mirren, Ace Gonsales, Eddi Marsan, Eliana Sud, Cliff Curtis, Lori Pelenis Tuisano.--Tavsif: Lyuk Hobbs amerikalik elita maxsus agent bo'lib, u qulay sport kiyimlarini, katta pick-uplarni va sog'lom ovqatlanishni yaxshi ko'radi. Descard Show-ingliz pijonasi, sobiq razvedka xodimi, qimmatbaho kostyumlar, sport avtomobillari va uzun oyoqli go'zalliklarni afzal ko'radi. Bu ikki kishi bir-biridan nafratlanadi. Ammo agar kimdir o'z oilalariga tahdid qilsa, ular hamma narsaga tayyor. Hatto jamoada ishlash.--Videoning sifati: HDRip 720p
Video format: MKV--Video: HVC1 1280x536 30fps 753 kb/s
Audio: MP3 48000Hz stereo 128kbps O'zbek Tili
Subtitrlar: Kor Tilida--

Media Info

General
Format : Matroska
Format version : Version 4 / Version 2
File size : 816 MiB
Duration : 2 h 9 min
Overall bit rate : 883 kb/s
Encoded date : UTC 2019-09-23 01:46:01
Writing application : mkvmerge v15.0.0 ('Duel with the Devil') 64-bit
Writing library : libebml v1.3.5 + libmatroska v1.4.5
Video
ID : 1
Format : HEVC
Format/Info : High Efficiency Video Coding
Format profile : Main@L3.1@Main
Codec ID : V_MPEGH/ISO/HEVC
Duration : 2 h 9 min
Bit rate : 753 kb/s
Width : 1 280 pixels
Height : 536 pixels
Display aspect ratio : 2.40:1
Frame rate mode : Constant
Frame rate : 30.000 FPS
Color space : YUV
Chroma subsampling : 4:2:0
Bit depth : 8 bits
Bits/(Pixel*Frame) : 0.037
Stream size : 696 MiB (85%)
Default : Yes
Forced : No
Color range : Limited
Color primaries : BT.709
Transfer characteristics : BT.709
Matrix coefficients : BT.709
Audio
ID : 2
Format : MPEG Audio
Format version : Version 1
Format profile : Layer 3
Mode : Joint stereo
Codec ID : A_MPEG/L3
Codec ID/Hint : MP3
Duration : 2 h 9 min
Bit rate mode : Constant
Bit rate : 128 kb/s
Channel(s) : 2 channels
Sampling rate : 48.0 kHz
Frame rate : 41.667 FPS (1152 SPF)
Compression mode : Lossy
Stream size : 118 MiB (14%)
Title : O'zbek Tili
Language : Uzbek
Default : Yes
Forced : No
LAVHALAR--
.torrent yuklash

Yuqori tezlikda va bepul ko‘chirish!

Qanday yuklab olinadi? · Torrent nima o‘zi? · Reyting va cheklovlar

Profil ShX
Xabarlarni ko‘rsatish:    

Hozirgi vaqt: 15-Okt 19:02

Vaqtlar farqi: UTC + 5



Siz mavzu yaratishingiz mumkin emas
Siz xabarlarga javob qaytarishingiz mumkin emas
Siz o‘z xabarlaringizni tahrirlashingiz mumkin emas
Siz o‘z xabarlaringizni o‘chirishingiz mumkin emas
Siz so‘rovlarda ovoz berishingiz mumkin emas
Siz xabalarga fayllarni biriktirishingiz mumkin emas
Siz fayllarni ko‘chirishingiz mumkin emas