˂
˃
Tarqatmalar statistikasi
Ko‘chirmoqdaman: [ 1 ]
Ko‘chirib bo‘ldim: [ 6 ]
 
     
 
 

farrux1981 ®

Jins:
Yigit
Staj:
4 oy 17 kun
Xabarlar:
37
Taqiq:

Afsungar / Merlin / Мерлин -Chiqqan yili: 2008
Davlat: Buyuk Britaniya
Janr: Fantastika, drama, tarixiy
Davomiyligi: 00:43:00 Х 65
Tarjima: Professional (Ko'p Ovozli) [Yoshlar]-Rejissyor: Djeyms Xouz, Djulian Djons, Djeyk Michi, Djonni Kaps, Djulian Merfi-Rollarda: Kolin Morgan, Endjel Kolbi, Bredli Djeyms, Keti MakGrat, Entoni Xed, Richard Uilson, Rupert Yang, Emiliya Foks, Maykl Kronin, Mishel Rayan, Eyn Meken, Tom Ellis, Eysa Batterfild, Kerolayn Faber, Santyago Kabrera, Elis Patten, Adam Godli, Sara Perish, Devid Darxem, Maykl Djenn, Lora Donnelli, Kelam Makferson, Gari Oliver, Rik Inglish, Trevor Sellers, Ed Koulmen, Miranda Reyson, Iv Mayls, Luiz Dilan-Tavsif: Mo'jizalar zamonida va afsonalar diyorida ulkan qirollik taqdiri yosh bir yigitchaga bog'liq edi. Uning ismi - Merlin!- -Sifat: WEBRip
Format: MP4
Video: AVC, 1280x719, 25fps, 1000 kbps
Audio: AAC, 2 ch, 128 kbps-

MediaInfo

General
Complete name : D:\Torrent uchun\Merlin\Merlin - Мерлин (O'zbek tilida) HD 26 - Qism.mp4
Format : MPEG-4
Format profile : Base Media
Codec ID : isom (isom/iso2/avc1/mp41)
File size : 390 MiB
Duration : 48 min 23 s
Overall bit rate : 1 127 kb/s
Video
ID : 1
Format : AVC
Format/Info : Advanced Video Codec
Format profile : High@L3
Format settings : CABAC / 4 Ref Frames
Format settings, CABAC : Yes
Format settings, Reference fra : 4 frames
Format settings, GOP : M=1, N=75
Codec ID : avc1
Codec ID/Info : Advanced Video Coding
Duration : 48 min 23 s
Duration_FirstFrame : 46 ms
Bit rate : 1 000 kb/s
Width : 852 pixels
Height : 480 pixels
Display aspect ratio : 16:9
Original display aspect ratio : 16:9
Frame rate mode : Constant
Frame rate : 25.000 FPS
Color space : YUV
Chroma subsampling : 4:2:0
Bit depth : 8 bits
Scan type : Progressive
Bits/(Pixel*Frame) : 0.098
Stream size : 345 MiB (88%)
Writing library : x264 core 152 r2851 ba24899
Encoding settings : cabac=1 / ref=4 / deblock=1:2:2 / analyse=0x3:0x113 / me=hex / subme=2 / psy=1 / psy_rd=1.00:0.00 / mixed_ref=1 / me_range=16 / chroma_me=1 / trellis=0 / 8x8dct=1 / cqm=0 / deadzone=21,11 / fast_pskip=1 / chroma_qp_offset=0 / threads=15 / lookahead_threads=3 / sliced_threads=0 / nr=0 / decimate=1 / interlaced=0 / bluray_compat=0 / constrained_intra=0 / bframes=0 / weightp=2 / keyint=75 / keyint_min=7 / scenecut=0 / intra_refresh=0 / rc_lookahead=40 / rc=abr / mbtree=1 / bitrate=1000 / ratetol=1.0 / qcomp=0.60 / qpmin=10 / qpmax=51 / qpstep=4 / ip_ratio=0.91 / aq=1:1.00
Tagged date : UTC 2018-02-04 19:14:51
Codec configuration box : avcC
Audio
ID : 2
Format : AAC LC
Format/Info : Advanced Audio Codec Low Complexity
Codec ID : mp4a-40-2
Duration : 48 min 23 s
Bit rate mode : Constant
Bit rate : 128 kb/s
Channel(s) : 2 channels
Channel layout : L R
Sampling rate : 44.1 kHz
Frame rate : 43.066 FPS (1024 SPF)
Compression mode : Lossy
Stream size : 44.3 MiB (11%)
Default : Yes
Alternate group : 1
Tagged date : UTC 2018-02-04 19:14:51

.torrent yuklash

Yuqori tezlikda va bepul ko‘chirish!

Qanday yuklab olinadi? · Torrent nima o‘zi? · Reyting va cheklovlar

Profil ShX

N.U.R.I.K.B.E.K

Jins:
Yigit
Staj:
1 yil 11 oy
Xabarlar:
537

Qayerdan: Jizzax. Paxtakor

Taqiq:

bu o'zi taxlagan shekili yaxshiro kachestvaga o'tkazish kerak ekan

Mavzu yaratish 23-Sen-2019 00:13 (2 soat 29 daqiqa o‘tgach)

Iqitibos

Profil ShX

erkin.pardayev

Jins:
Yigit
Staj:
3 oy 20 kun
Xabarlar:
29

Qayerdan: Qarshi

Taqiq:

8738bu o'zi taxlagan shekili yaxshiro kachestvaga o'tkazish kerak ekan
O'tkazasizmi? O'tkazsangiz rosdanam HD sifatini kutib qolamiz

Mavzu yaratish 23-Sen-2019 09:00 (8 soat o‘tgach)

Iqitibos

Profil ShX
Xabarlarni ko‘rsatish:    

Hozirgi vaqt: 15-Okt 05:04

Vaqtlar farqi: UTC + 5



Siz mavzu yaratishingiz mumkin emas
Siz xabarlarga javob qaytarishingiz mumkin emas
Siz o‘z xabarlaringizni tahrirlashingiz mumkin emas
Siz o‘z xabarlaringizni o‘chirishingiz mumkin emas
Siz so‘rovlarda ovoz berishingiz mumkin emas
Siz xabalarga fayllarni biriktirishingiz mumkin emas
Siz fayllarni ko‘chirishingiz mumkin emas