˂
˃
Tarqatmalar statistikasi
Ko‘chirmoqdaman: [ 1 ]
Ko‘chirib bo‘ldim: [ 7 ]
 
     
 
 

farrux1981 ®

Jins:
Yigit
Staj:
4 oy 18 kun
Xabarlar:
37
Taqiq:

Ayris 2 / Айрис II / Iris II- Chiqqan Yili: 2013
Davlat: Janubiy Koreya
Janr: Jangari, melodrama, triller, drama
Davomiyligi: ~ 01:02:00
Tarjima: Professional (Ko'p ovozli) (O'zbek Tilida)-Rejissyor: Min Su Pe, Ta Xon Kim-Rollarda: Chjan Xyuk, Bom Su Li, Da Xe Li, Yun Soo Oo, Yong Cheol Kim, Doo Joon Yun, Soo Hyang Im, Jong Li, Song Xyun Baek, Xyun Xong Cha, Ji Xyun Kim, Devid Li Makinnis, Fuku Yuko, O'g'il Wu Kim, So Yong Kim, So Ji Yun, Chu Sang Yun, Jung Gil Li, Seok Von Jong, So I Yoon, So Xyun Kim (I), Jin Mo Chu (II), Don Il Song, Sun Uk Pak, Gong Ta Pak, Jeong Gu Kim, Guo Yun-Tavsif: Xyun Yongning vafotidan 3 yil o'tdi. Syujet uning fojiali o'limi va maxfiy tashkilot Irisning sherigi Baek San atrofida sodir bo'ladi. Va shuningdek, hikoya bizga Baek Sunning harakatlarini boshqargan janob Blek haqida hikoya qiladi. Yu Gong tezkor-taktik guruhning sardori va NSS agentlari faqat kuchayib borgan kuchli dushman bilan doimiy jangda qatnashmoqdalar. Baek Sangning tergovida ishtirok etish Jung Yu Gongning taqdirini butunlay o'zgartiradi.--Sifat: WEBRip
Format: MP4
Video Kodek: AVC
Audio Kodek: AAC
Video: 1280x719 | 30 fps | 800 Kbps
Audio: 44.1 kHz | 2 chs | ~125 Kbps-

MediaInfo

General
Complete name : D:\Torrent uchun\Iris\2 sezon\IRIS _ ИРИС ( KOREYA SERIALI 2-FASIL)HD 1-QISIM.mp4
Format : MPEG-4
Format profile : Base Media
Codec ID : isom (isom/iso2/avc1/mp41)
File size : 413 MiB
Duration : 1 h 2 min
Overall bit rate : 916 kb/s
Video
ID : 1
Format : AVC
Format/Info : Advanced Video Codec
Format profile : High@L3
Format settings : CABAC / 4 Ref Frames
Format settings, CABAC : Yes
Format settings, Reference fra : 4 frames
Format settings, GOP : M=1, N=75
Codec ID : avc1
Codec ID/Info : Advanced Video Coding
Duration : 1 h 2 min
Duration_FirstFrame : 23 ms
Bit rate : 800 kb/s
Width : 1280 pixels
Height : 719 pixels
Display aspect ratio : 16:9
Original display aspect ratio : 16:9
Frame rate mode : Constant
Frame rate : 25.000 FPS
Color space : YUV
Chroma subsampling : 4:2:0
Bit depth : 8 bits
Scan type : Progressive
Bits/(Pixel*Frame) : 0.077
Stream size : 356 MiB (86%)
Tagged date : UTC 2017-12-12 15:36:47
Codec configuration box : avcC
Audio
ID : 2
Format : AAC LC
Format/Info : Advanced Audio Codec Low Complexity
Codec ID : mp4a-40-2
Duration : 1 h 2 min
Bit rate mode : Constant
Bit rate : 123 kb/s
Channel(s) : 2 channels
Channel layout : L R
Sampling rate : 44.1 kHz
Frame rate : 43.066 FPS (1024 SPF)
Compression mode : Lossy
Stream size : 55.3 MiB (13%)
Default : Yes
Alternate group : 1
Tagged date : UTC 2017-12-12 15:36:47

.torrent yuklash

Yuqori tezlikda va bepul ko‘chirish!

Qanday yuklab olinadi? · Torrent nima o‘zi? · Reyting va cheklovlar

Profil ShX
Xabarlarni ko‘rsatish:    

Hozirgi vaqt: 15-Okt 19:51

Vaqtlar farqi: UTC + 5



Siz mavzu yaratishingiz mumkin emas
Siz xabarlarga javob qaytarishingiz mumkin emas
Siz o‘z xabarlaringizni tahrirlashingiz mumkin emas
Siz o‘z xabarlaringizni o‘chirishingiz mumkin emas
Siz so‘rovlarda ovoz berishingiz mumkin emas
Siz xabalarga fayllarni biriktirishingiz mumkin emas
Siz fayllarni ko‘chirishingiz mumkin emas