˂
˃
Tarqatmalar statistikasi
Ko‘chirmoqdaman: [ 2 ]
Ko‘chirib bo‘ldim: [ 20 ]
 
     
 
 

N.U.R.I.K.B.E.K ®

Jins:
Yigit
Staj:
1 yil 11 oy
Xabarlar:
537

Qayerdan: Jizzax. Paxtakor

Taqiq:

- --O'rgimchak Odam: Uydan Olisda
Человек-паук: Вдали от дома
Spider-Man: Far From Home
--Chiqqan Yili: 2019
Davlat: AQSH
Janr: Fantastika, Jangari, Sarguzasht.
Davomoyligi: 02:09:21
Tarjima: Professional (Ko'p Ovozli) [MY5]--Rejissyor: Jon Uotts /Джон Уоттс / Jon Watts--Rollarda: Tom Holland (II), Zandaya Koleman, Engary Reys, Jon Favro, Jeyk Jillenhol, Samvel L. Jekson, Kobi Smolders, Merisa Tomey, Martin Starr, Noman Adjar, Jeykob Batalon, Toni Revolori--Tavsif: Piter Parker va uning do'stlari yozgi ta'tilda Yevropaga ketishmoqda. Biroq, do'stlar dam olishlari dargumon - Butrus Nik Furyga qit'ada tabiiy ofatlar va vayronagarchiliklarni keltirib chiqaradigan mavjudotlarning sirini ochishga yordam berishga rozi bo'ladi.-- --Sifat: BDRip 1080p HEVC
Format: MKV-Video: HEVC, 1920 x 800, 23.976 fps 2 100 kb/s
Audio: MP3 48000Hz stereo 128kbps O'zbek Tili--

MediaInfo

General
Format : Matroska
Format version : Version 4 / Version 2
File size : 2.01 GiB
Duration : 2 h 8 min
Overall bit rate : 2 230 kb/s
Encoded date : UTC 2019-09-19 03:14:57
Writing application : mkvmerge v15.0.0 ('Duel with the Devil') 64-bit
Writing library : libebml v1.3.5 + libmatroska v1.4.5
Video
ID : 1
Format : AVC
Format/Info : Advanced Video Codec
Format profile : High@L4.1
Format settings, CABAC : Yes
Format settings, RefFrames : 4 frames
Codec ID : V_MPEG4/ISO/AVC
Duration : 2 h 8 min
Bit rate : 2 100 kb/s
Width : 1 920 pixels
Height : 800 pixels
Display aspect ratio : 2.40:1
Frame rate mode : Constant
Frame rate : 30.000 FPS
Color space : YUV
Chroma subsampling : 4:2:0
Bit depth : 8 bits
Scan type : Progressive
Bits/(Pixel*Frame) : 0.046
Stream size : 1.89 GiB (94%)
Writing library : x264 core 152
Default : Yes
Forced : No
Audio
ID : 2
Format : MPEG Audio
Format version : Version 1
Format profile : Layer 3
Mode : Joint stereo
Codec ID : A_MPEG/L3
Codec ID/Hint : MP3
Duration : 2 h 8 min
Bit rate mode : Constant
Bit rate : 128 kb/s
Channel(s) : 2 channels
Sampling rate : 48.0 kHz
Frame rate : 41.667 FPS (1152 SPF)
Compression mode : Lossy
Stream size : 118 MiB (6%)
Title : O'zbek Tili
Writing library : LAME3.99.5
Language : Uzbek
Default : Yes
Forced : No
.torrent yuklash

Yuqori tezlikda va bepul ko‘chirish!

Qanday yuklab olinadi? · Torrent nima o‘zi? · Reyting va cheklovlar

Profil ShX
Forum Mavzu Muallif Hajm
Vaqtincha tarqatmalar O'rgimchak odam - Iblis nafasi/2018/PS4/GameFilm SobirR 2,42 GB
HEVC Kinofilmlar O'rgimchak Odam: Uydan Olisda / Человек-паук: Вдали от дома / Spider-Man: Far from Home (Jon Uotts /Джон Уоттс / Jon Watts) [2019, Fantastika, Jangari, Sarguzasht, BDRip 720p HEVC] O... N.U.R.I.K.B.E.K 1,01 GB
Sifatsiz filmlar (CAMRip, TS, DVDScr) O'rgimchak Odam: Uydan Uzoqda / Человек-паук: Вдали от дома / Spider-Man: Far From Home (Jon Vott / Джон Уоттс / John Watts) [2019, Fantastika, jangari, komediya, sarguzasht, CAMRip 720p, P] Rus... Soft-Release 3,24 GB
Sifatsiz filmlar (CAMRip, TS, DVDScr) O'rgimchak Odam: Uydan Uzoqda / Человек-паук: Вдали от дома / Spider-Man: Far From Home (Jon Vott / Джон Уоттс / John Watts) [2019, Fantastika, jangari, komediya, sarguzasht, CAMRip, P] Rus... Soft-Release 1,46 GB
2012-2018 yil kinofilmlari O'rgimchak odam: Uyga qaytish / Человек-паук: Возвращение домой / Spider-Man: Homecoming (Jon Uotts / Jon Watts) [2017 y., fantastika, jangari, sarguzasht, BDRip] iTunes + Yoshlar + MY5 MRLG 1,71 GB
2012-2018 yil kinofilmlari O'rgimchak odam: Uyga Qaytish |Человек-паук: Возвращение домой | Spider-Man: Homecoming [2017, AQSH, Fantastika, jangari, sarguzasht, TVRip] Vampire_1987 706 MB
O`zbek tilidagi tarjima multfilmlar O'rgimchak odam: Yondosh olamlar / Человек-паук: Через вселенные / Spider-Man: Into the Spider-Verse (Bob Persichetti, Piter Remzi, Rodni Rotman / Bob Persichetti, Peter Ramsey, Rodney Rothman)... MRLG 1,57 GB
HEVC Multfilmlar O'rgimchak odam: Yondosh olamlar / Человек-паук: Через вселенные / Spider-Man: Into the Spider-Verse (Bob Persichetti, Piter Remzi, Rodni Rotman) [2018, multfilm, fantastika, jangari,... logan7272 1,82 GB
Xabarlarni ko‘rsatish:    

Hozirgi vaqt: 15-Okt 03:49

Vaqtlar farqi: UTC + 5



Siz mavzu yaratishingiz mumkin emas
Siz xabarlarga javob qaytarishingiz mumkin emas
Siz o‘z xabarlaringizni tahrirlashingiz mumkin emas
Siz o‘z xabarlaringizni o‘chirishingiz mumkin emas
Siz so‘rovlarda ovoz berishingiz mumkin emas
Siz xabalarga fayllarni biriktirishingiz mumkin emas
Siz fayllarni ko‘chirishingiz mumkin emas