˂
˃
Tarqatmalar statistikasi
Ko‘chirib bo‘ldim: [ 5 ]
 
     
 
 

farrux1981 ®

Jins:
Yigit
Staj:
6 oy 12 kun
Xabarlar:
37
Taqiq:

Ayris / Айрис / Iris- Chiqqan Yili: 2009
Davlat: Janubiy Koreya
Janr: Jangari, melodrama, triller, drama
Davomiyligi: ~ 01:00:00
Tarjima: Professional (Ko'p ovozli) (O'zbek Tilida)-Rejissyor: Kyu The Kim, Yun Xo Yan-Rollarda: Byung Xong Li, Tae Xi Kim, So Yong Kim, Jun Xon Jung, Son U Kim, Son Xyun Choy, Ji Ni Xyun, Yu Min, Yong Chol Kim, Ja Mun Yun, Ju Sang Yun, Chjong Gil Li, Xan Yong Jun , Na Yoon, Xe Jin Kim, Karen Miyami, Gap Su Kim, Xo Bin Chung, Xo Min Yu, Son Ryun Ryu, Xyun Jong Im, Devid Li MakInnis, Xon Chol Cho, Jung Gu Kim-Tavsif: Janubiy Koreyaning eng hayajonli, dinamik va adrenalin loyihalaridan biri tomoshabinlarga tomosha paytida zerikish uchun yagona imkoniyat bermaydi. Siyosiy fitnalar, turli maqsadlarga qaratilgan maxfiy tashkilotlar o'rtasidagi qarama-qarshilik, kuchli erkak do'stligi, ishqiy tuyg'ular - bularning barchasi ushbu rasmda juda ko'p. Ammo bu dramaning syujeti unchalik aniq emas. Maxfiy agent o'zining eng yaqin do'stini yo'q qilishga buyruq berganida nima qilishi kerak? Va agar ushbu agent do'stingizning keliniga oshiq bo'lsa? Qanday qilib adolatsiz josuslikda ayblangan kishiga ismingizni tiklashingiz mumkin? Va nihoyat, agar sizning sevgilingiz barrikadalarning narigi tomonida bo'lsa, qanday yashash kerak? Bunday rasm tomoshabinni o'ziga shunday savollarni tug'diradi va har kimga o'zidan o'zi javob topishga imkon beradi. 2009 yilda chiqarilgan "Iris", hanuzgacha harakatga asoslangan Osiyo kinosi janridagi "oltin standart" hisoblanadi.--Sifat: WEBRip
Format: MP4
Video Kodek: AVC
Audio Kodek: AAC
Video: 1280x719 | 30 fps | 968 Kbps
Audio: 44.1 kHz | 2 chs | ~125 Kbps-

MediaInfo

General
Complete name : D:\Torrent uchun\Iris\1 sezon\IRIS _ ИРИС ( KOREYA SERIALI O'ZBEK TILIDA)HD 20-QISIM.mp4
Format : MPEG-4
Format profile : Base Media
Codec ID : isom (isom/iso2/avc1/mp41)
File size : 495 MiB
Duration : 1 h 2 min
Overall bit rate : 1 099 kb/s
Video
ID : 1
Format : AVC
Format/Info : Advanced Video Codec
Format profile : High@L3
Format settings : CABAC / 4 Ref Frames
Format settings, CABAC : Yes
Format settings, Reference fra : 4 frames
Format settings, GOP : M=1, N=60
Codec ID : avc1
Codec ID/Info : Advanced Video Coding
Duration : 1 h 2 min
Duration_FirstFrame : 46 ms
Bit rate : 968 kb/s
Width : 1280 pixels
Height : 719 pixels
Display aspect ratio : 16:9
Original display aspect ratio : 16:9
Frame rate mode : Constant
Frame rate : 25.000 FPS
Color space : YUV
Chroma subsampling : 4:2:0
Bit depth : 8 bits
Scan type : Progressive
Bits/(Pixel*Frame) : 0.095
Stream size : 439 MiB (89%)
Writing library : x264 core 142 r2455 021c0dc
Encoding settings : cabac=1 / ref=4 / deblock=1:2:2 / analyse=0x3:0x113 / me=dia / subme=2 / psy=1 / psy_rd=1.00:0.00 / mixed_ref=1 / me_range=16 / chroma_me=1 / trellis=0 / 8x8dct=1 / cqm=0 / deadzone=21,11 / fast_pskip=1 / chroma_qp_offset=0 / threads=36 / lookahead_threads=3 / sliced_threads=0 / nr=0 / decimate=1 / interlaced=0 / bluray_compat=0 / constrained_intra=0 / bframes=0 / weightp=2 / keyint=60 / keyint_min=25 / scenecut=0 / intra_refresh=0 / rc_lookahead=40 / rc=abr / mbtree=1 / bitrate=968 / ratetol=1.0 / qcomp=0.60 / qpmin=10 / qpmax=51 / qpstep=4 / ip_ratio=0.91 / aq=1:1.00
Tagged date : UTC 2017-07-03 18:29:29
Codec configuration box : avcC
Audio
ID : 2
Format : AAC LC
Format/Info : Advanced Audio Codec Low Complexity
Codec ID : mp4a-40-2
Duration : 1 h 2 min
Bit rate mode : Constant
Bit rate : 122 kb/s
Channel(s) : 2 channels
Channel layout : L R
Sampling rate : 44.1 kHz
Frame rate : 43.066 FPS (1024 SPF)
Compression mode : Lossy
Stream size : 54.9 MiB (11%)
Default : Yes
Alternate group : 1
Tagged date : UTC 2017-07-03 18:29:29

.torrent yuklash

Yuqori tezlikda va bepul ko‘chirish!

Qanday yuklab olinadi? · Torrent nima o‘zi? · Reyting va cheklovlar

Profil ShX
Xabarlarni ko‘rsatish:    

Hozirgi vaqt: 09-Dek 20:21

Vaqtlar farqi: UTC + 5



Siz mavzu yaratishingiz mumkin emas
Siz xabarlarga javob qaytarishingiz mumkin emas
Siz o‘z xabarlaringizni tahrirlashingiz mumkin emas
Siz o‘z xabarlaringizni o‘chirishingiz mumkin emas
Siz so‘rovlarda ovoz berishingiz mumkin emas
Siz xabalarga fayllarni biriktirishingiz mumkin emas
Siz fayllarni ko‘chirishingiz mumkin emas