˂
˃
Tarqatmalar statistikasi
Ko‘chirmoqdaman: [ 1 ]
Ko‘chirib bo‘ldim: [ 23 ]
 
     
 
 

N.U.R.I.K.B.E.K ®

Jins:
Yigit
Staj:
1 yil 11 oy
Xabarlar:
540

Qayerdan: Jizzax. Paxtakor

Taqiq:

-X-Odamlar Qora Qaqnus | Люди Икс: Тёмный Феникс | X-Men Dark Phoenix
--Chiqqan yili: 2019
Davlat: AQSH
Janr: Fantastik, Jangari, Sarguzasht.
Davomiyligi: 01:53:56
Tarjima 1: MY5 O'zbek Tilida.
Tarjima 2: Ko'p Ovozli Rus Tilida.--Rejissyor: Simon Kinberg.--Rollarda: Jeyms Makevoy, Maykl Fassbender, Jennifer Lawrence, Nikolas Holt, Sophie Tyorner, Tai Sheridan, Aleksandra Shipp, Evan Peters, Cody Smit-Makfi, Jessica Chastain.--Tavsif: Qahramon qorong'u Feniksga aylangan paytda paydo bo'lgan Jin gray hikoyasi. Kosmosda hayot uchun xavfli qutqaruv missiyasida qiz o'zini sirli kosmik kuch bilan urib, uni eng kuchli mutantlardan biriga aylantiradi. Bu tobora o'zgaruvchan kuchga qarshi kurashda va o'z jinlari bilan Jin o'z nazoratidan chiqadi: X-men oilasini buzadi va butun sayyoramizni yo'q qilish bilan tahdid qiladi.--Videoning sifati: BDRip 1080p
Video format: MKV--Video: HEVC 1920x808 23.976fps 1 284 kb/s
Audio: MP3 48000Hz stereo 128kbps O'zbek Tili
Audio 2: Dolby AC3 48000Hz 6ch 448kbps Rus Tili--

Media Info

General
Format : Matroska
Format version : Version 4 / Version 2
File size : 1.48 GiB
Duration : 1 h 53 min
Overall bit rate : 1 862 kb/s
Movie name : Dark Phoenix - RMTeam, RMZ.cr
Encoded date : UTC 2019-09-16 19:41:29
Writing application : mkvmerge v15.0.0 ('Duel with the Devil') 64-bit
Writing library : libebml v1.3.5 + libmatroska v1.4.5
Video
ID : 1
Format : HEVC
Format/Info : High Efficiency Video Coding
Format profile : Main@L4@Main
Codec ID : V_MPEGH/ISO/HEVC
Duration : 1 h 53 min
Bit rate : 1 284 kb/s
Width : 1 920 pixels
Height : 808 pixels
Display aspect ratio : 2.40:1
Frame rate mode : Variable
Frame rate : 23.976 FPS
Color space : YUV
Chroma subsampling : 4:2:0
Bit depth : 8 bits
Bits/(Pixel*Frame) : 0.035
Stream size : 1.02 GiB (69%)
Default : Yes
Forced : No
Audio #1
ID : 2
Format : MPEG Audio
Format version : Version 1
Format profile : Layer 3
Mode : Joint stereo
Codec ID : A_MPEG/L3
Codec ID/Hint : MP3
Duration : 1 h 53 min
Bit rate mode : Constant
Bit rate : 128 kb/s
Channel(s) : 2 channels
Sampling rate : 48.0 kHz
Frame rate : 41.667 FPS (1152 SPF)
Compression mode : Lossy
Stream size : 104 MiB (7%)
Title : O'zbek Tili
Language : Uzbek
Default : Yes
Forced : No
Audio #2
ID : 3
Format : AC-3
Format/Info : Audio Coding 3
Format settings, Endianness : Big
Codec ID : A_AC3
Duration : 1 h 53 min
Bit rate mode : Constant
Bit rate : 448 kb/s
Channel(s) : 6 channels
Channel positions : Front: L C R, Side: L R, LFE
Sampling rate : 48.0 kHz
Frame rate : 31.250 FPS (1536 SPF)
Bit depth : 16 bits
Compression mode : Lossy
Stream size : 365 MiB (24%)
Title : Rus Tili
Language : Russian
Service kind : Complete Main
Default : No
Forced : No
LAVHALAR
.torrent yuklash

Yuqori tezlikda va bepul ko‘chirish!

Qanday yuklab olinadi? · Torrent nima o‘zi? · Reyting va cheklovlar

Profil ShX
Xabarlarni ko‘rsatish:    

Hozirgi vaqt: 22-Okt 09:10

Vaqtlar farqi: UTC + 5



Siz mavzu yaratishingiz mumkin emas
Siz xabarlarga javob qaytarishingiz mumkin emas
Siz o‘z xabarlaringizni tahrirlashingiz mumkin emas
Siz o‘z xabarlaringizni o‘chirishingiz mumkin emas
Siz so‘rovlarda ovoz berishingiz mumkin emas
Siz xabalarga fayllarni biriktirishingiz mumkin emas
Siz fayllarni ko‘chirishingiz mumkin emas