˂
˃
Tarqatmalar statistikasi
Ko‘chirmoqdaman: [ 5 ]
Ko‘chirib bo‘ldim: [ 5 ]
 
     
 
 

farrux1981 ®

Jins:
Yigit
Staj:
4 oy 18 kun
Xabarlar:
37
Taqiq:

Afina: Urush Mabudi / Афина: Богиня войны / Athena: Goddess Of War- Chiqqan Yili: 2010-2011
Davlat: Janubiy Koreya
Janr: Jangari, melodrama, triller, drama
Davomiyligi: ~ 01:02:00
Tarjima: Professional (Ko'p ovozli) (O'zbek Tilida)-Rejissyor: Yong Jong Kim, Ta Xon Kim-Rollarda: Vu Song Chong, Soong Ye, Sin Von Cha, Shi Von Chxe, Ji A Li, Min Jong Kim, Chanmin Sim, Bo Yong Li, So Yong Kim, Shon Richard, Don Geun Yu, Jong Kil Li, Yong E Kim, O'g'il Vu Kim, Yun Ao, Yun Ki Pak, Yun Soo Pak, Xan Wi Li, Kil Sung Ban, Min Ji Li, Jung Xvan Gong, Ha Jin Yu, Chol Min Pak, BoA, Riki Li, Ja Yang Li, Pol Stefordord Xo Bin Chung, Jin Xo Choy, Yun Sung Kim, Ta Min Li, Yun Seok Pak, Chan Sok O-Tavsif: Afina nomi bilan tanilgan, yovuz daho Son-Xyuk boshchiligidagi terrorchi guruh Koreya va dunyoga tahdid solmoqda. Endi bularning barchasi Milliy xavfsizlik agentligining agenti Li Jon Vuga bog'liq. U terrorchi guruhning niyatini ochib bera oladimi? Cho Su-Yon, Janubiy Koreya prezidentining qizi o'g'irlab ketilgan va Italiyada yashiringan. Jon-u va uning jamoasiga uni topish va qaytarib berish vazifasi yuklatilgan.--Sifat: WEBRip
Format: MP4
Video Kodek: AVC
Audio Kodek: AAC
Video: 1280x719 | 30 fps | 1201 Kbps
Audio: 44.1 kHz | 2 chs | ~125 Kbps-

MediaInfo

General
Complete name : D:\Torrent uchun\Afina\URUSH MABUDI 1 QISIM AFENA HD .mp4.mp4
Format : MPEG-4
Format profile : Base Media
Codec ID : isom (isom/iso2/avc1/mp41)
File size : 354 MiB
Duration : 36 min 57 s
Overall bit rate : 1 338 kb/s
Video
ID : 1
Format : AVC
Format/Info : Advanced Video Codec
Format profile : High@L3.1
Format settings : CABAC / 4 Ref Frames
Format settings, CABAC : Yes
Format settings, Reference fra : 4 frames
Format settings, GOP : M=1, N=90
Codec ID : avc1
Codec ID/Info : Advanced Video Coding
Duration : 36 min 57 s
Duration_FirstFrame : 46 ms
Bit rate : 1 201 kb/s
Width : 1280 pixels
Height : 719 pixels
Display aspect ratio : 16:9
Frame rate mode : Constant
Frame rate : 30.000 FPS
Color space : YUV
Chroma subsampling : 4:2:0
Bit depth : 8 bits
Scan type : Progressive
Bits/(Pixel*Frame) : 0.098
Stream size : 320 MiB (90%)
Writing library : x264 core 152 r2851 ba24899
Encoding settings : cabac=1 / ref=4 / deblock=1:2:2 / analyse=0x3:0x113 / me=hex / subme=2 / psy=1 / psy_rd=1.00:0.00 / mixed_ref=1 / me_range=16 / chroma_me=1 / trellis=0 / 8x8dct=1 / cqm=0 / deadzone=21,11 / fast_pskip=1 / chroma_qp_offset=0 / threads=15 / lookahead_threads=3 / sliced_threads=0 / nr=0 / decimate=1 / interlaced=0 / bluray_compat=0 / constrained_intra=0 / bframes=0 / weightp=2 / keyint=90 / keyint_min=9 / scenecut=0 / intra_refresh=0 / rc_lookahead=40 / rc=abr / mbtree=1 / bitrate=1201 / ratetol=1.0 / qcomp=0.60 / qpmin=10 / qpmax=51 / qpstep=4 / ip_ratio=0.91 / aq=1:1.00
Tagged date : UTC 2018-10-09 11:51:07
Codec configuration box : avcC
Audio
ID : 2
Format : AAC LC
Format/Info : Advanced Audio Codec Low Complexity
Codec ID : mp4a-40-2
Duration : 36 min 57 s
Bit rate mode : Constant
Bit rate : 125 kb/s
Channel(s) : 2 channels
Channel layout : L R
Sampling rate : 44.1 kHz
Frame rate : 43.066 FPS (1024 SPF)
Compression mode : Lossy
Stream size : 33.0 MiB (9%)
Default : Yes
Alternate group : 1
Tagged date : UTC 2018-10-09 11:51:07

.torrent yuklash

Yuqori tezlikda va bepul ko‘chirish!

Qanday yuklab olinadi? · Torrent nima o‘zi? · Reyting va cheklovlar

Profil ShX
Xabarlarni ko‘rsatish:    

Hozirgi vaqt: 15-Okt 18:21

Vaqtlar farqi: UTC + 5



Siz mavzu yaratishingiz mumkin emas
Siz xabarlarga javob qaytarishingiz mumkin emas
Siz o‘z xabarlaringizni tahrirlashingiz mumkin emas
Siz o‘z xabarlaringizni o‘chirishingiz mumkin emas
Siz so‘rovlarda ovoz berishingiz mumkin emas
Siz xabalarga fayllarni biriktirishingiz mumkin emas
Siz fayllarni ko‘chirishingiz mumkin emas