˂
˃
Tarqatmalar statistikasi
Ko‘chirmoqdaman: [ 3 ]
Ko‘chirib bo‘ldim: [ 24 ]
 
     
 
 

MRLG ®

Jins:
Yigit
Staj:
2 yil 3 oy
Xabarlar:
619
Taqiq:

«А» Jamoasi / Команда «А» / The A-Team- Chiqqan yili: 2010
Davlat: AQSH, Buyuk Britaniya
Janr: jangari, komediya, triller
Davomiyligi: 02:13:32
Tarjima: Ko'p ovozli kadr ortidan - [MY5]
Dublyaj qilingan - [BD CEE] (Rus tilida)

Subtitrlar: rus (Forced), rus, ingliz (Forced), ingliz, ingliz (SDH),-Rejissyor: Jo Karnahan / Joe Carnahan--Rollarda: Liam Nison, Bredli Kuper, Sharlto Kopli, Kuinton Djekson, Djessika Bil, Patrik Uilson, Djerald MakReyni, Genri Cherni, Yul Vaskes, Brayan Blum, Mori Sterling, Terri Chen--Tavsif: Iroqdagi urush faxriylari guruhi jinoyatda nohaqlik bilan ayblanib, haqiqiy aybdorlarni topishga va halol nomini qaytarishga harakat qilmoqda.-- -Sifat: BDRip-AVC [BDRemux]
Format: MKV
Video: AVC, 1040x442 (2.35:1), 2224 kbps, 23,976 fps, 0,202 bpp
Audio №1: Uzbek / MP3 / 2.0 / 48 kHz / 128 kbps /
Audio №2: RUS / AC3 / 5.1 / 48 kHz / 448 kbps /
Audio №3: ENG / AC3 / 5.1 / 48 kHz / 448 kbps /-

Media Info

General
Unique ID                                : 224048511812611158533724127569031426837 (0xA88E2C7D787DF479931F4527C9237315)
Complete name                            : D:\Кино\Дубляж фильмлар\HD Films Collection\Komanda.A.2010.DUAL.Extended.BDRip.x264.-MRLG.mkv
Format                                   : Matroska
Format version                           : Version 2
File size                                : 3.03 GiB
Duration                                 : 2 h 13 min
Overall bit rate                         : 3 246 kb/s
Movie name                               : HELLYWOOD - rip by potroks
Encoded date                             : UTC 2019-08-27 10:18:55
Writing application                      : mkvmerge v7.8.0 ('River Man') 32bit built on Apr  3 2015 12:11:22
Writing library                          : libebml v1.3.1 + libmatroska v1.4.2
Video
ID                                       : 1
Format                                   : AVC
Format/Info                              : Advanced Video Codec
Format profile                           : High@L4.1
Format settings, CABAC                   : Yes
Format settings, ReFrames                : 10 frames
Codec ID                                 : V_MPEG4/ISO/AVC
Duration                                 : 2 h 13 min
Bit rate                                 : 2 224 kb/s
Width                                    : 1 040 pixels
Height                                   : 442 pixels
Display aspect ratio                     : 2.35:1
Frame rate mode                          : Constant
Frame rate                               : 23.976 FPS
Color space                              : YUV
Chroma subsampling                       : 4:2:0
Bit depth                                : 8 bits
Scan type                                : Progressive
Bits/(Pixel*Frame)                       : 0.202
Stream size                              : 2.01 GiB (66%)
Title                                    : The A-Team
Writing library                          : x264 core 130 r2273 b3065e6
Encoding settings                        : cabac=1 / ref=10 / deblock=1:-3:-3 / analyse=0x3:0x133 / me=umh / subme=11 / psy=1 / psy_rd=1.00:0.03 / mixed_ref=1 / me_range=48 / chroma_me=1 / trellis=2 / 8x8dct=1 / cqm=0 / deadzone=21,11 / fast_pskip=0 / chroma_qp_offset=-3 / threads=9 / lookahead_threads=6 / sliced_threads=0 / nr=0 / decimate=0 / interlaced=0 / bluray_compat=0 / constrained_intra=0 / bframes=11 / b_pyramid=2 / b_adapt=2 / b_bias=0 / direct=3 / weightb=1 / open_gop=0 / weightp=2 / keyint=240 / keyint_min=23 / scenecut=40 / intra_refresh=0 / rc_lookahead=60 / rc=2pass / mbtree=0 / bitrate=2224 / ratetol=1.0 / qcomp=0.70 / qpmin=0 / qpmax=69 / qpstep=4 / cplxblur=20.0 / qblur=0.5 / vbv_maxrate=20000 / vbv_bufsize=20000 / nal_hrd=none / ip_ratio=1.35 / pb_ratio=1.25 / aq=1:0.90
Language                                 : English
Default                                  : Yes
Forced                                   : No
Audio #1
ID                                       : 2
Format                                   : MPEG Audio
Format version                           : Version 1
Format profile                           : Layer 3
Mode                                     : Joint stereo
Mode extension                           : MS Stereo
Codec ID                                 : A_MPEG/L3
Codec ID/Hint                            : MP3
Duration                                 : 2 h 13 min
Bit rate mode                            : Constant
Bit rate                                 : 128 kb/s
Channel(s)                               : 2 channels
Sampling rate                            : 48.0 kHz
Compression mode                         : Lossy
Stream size                              : 122 MiB (4%)
Title                                    : MY5 | MRLG
Writing library                          : LAME3.100Є
Language                                 : Uzbek
Default                                  : Yes
Forced                                   : Yes
Audio #2
ID                                       : 3
Format                                   : AC-3
Format/Info                              : Audio Coding 3
Mode extension                           : CM (complete main)
Format settings, Endianness              : Big
Codec ID                                 : A_AC3
Duration                                 : 2 h 13 min
Bit rate mode                            : Constant
Bit rate                                 : 448 kb/s
Channel(s)                               : 6 channels
Channel positions                        : Front: L C R, Side: L R, LFE
Sampling rate                            : 48.0 kHz
Frame rate                               : 31.250 FPS (1536 spf)
Compression mode                         : Lossy
Stream size                              : 428 MiB (14%)
Title                                    : Dub | DD 5.1 @ 448 kbps - BD CEE
Language                                 : Russian
Default                                  : No
Forced                                   : No
Audio #3
ID                                       : 4
Format                                   : AC-3
Format/Info                              : Audio Coding 3
Mode extension                           : CM (complete main)
Format settings, Endianness              : Big
Codec ID                                 : A_AC3
Duration                                 : 2 h 13 min
Bit rate mode                            : Constant
Bit rate                                 : 448 kb/s
Channel(s)                               : 6 channels
Channel positions                        : Front: L C R, Side: L R, LFE
Sampling rate                            : 48.0 kHz
Frame rate                               : 31.250 FPS (1536 spf)
Compression mode                         : Lossy
Stream size                              : 428 MiB (14%)
Title                                    : Original | DD 5.1 @ 448 kbps
Language                                 : English
Default                                  : No
Forced                                   : No
Text #1
ID                                       : 5
Format                                   : UTF-8
Codec ID                                 : S_TEXT/UTF8
Codec ID/Info                            : UTF-8 Plain Text
Title                                    : Forced
Language                                 : Russian
Default                                  : Yes
Forced                                   : No
Text #2
ID                                       : 6
Format                                   : UTF-8
Codec ID                                 : S_TEXT/UTF8
Codec ID/Info                            : UTF-8 Plain Text
Language                                 : Russian
Default                                  : No
Forced                                   : No
Text #3
ID                                       : 7
Format                                   : UTF-8
Codec ID                                 : S_TEXT/UTF8
Codec ID/Info                            : UTF-8 Plain Text
Title                                    : Forced
Language                                 : English
Default                                  : No
Forced                                   : No
Text #4
ID                                       : 8
Format                                   : UTF-8
Codec ID                                 : S_TEXT/UTF8
Codec ID/Info                            : UTF-8 Plain Text
Language                                 : English
Default                                  : No
Forced                                   : No
Text #5
ID                                       : 9
Format                                   : UTF-8
Codec ID                                 : S_TEXT/UTF8
Codec ID/Info                            : UTF-8 Plain Text
Title                                    : SDH
Language                                 : English
Default                                  : No
Forced                                   : No
Menu
00:00:00.000                             : en:Gringo in Mexico
00:05:17.400                             : en:All Tyred Up
00:13:31.268                             : en:Mad Dog
00:21:10.769                             : en:80 Missions Later
00:26:32.340                             : en:Frat Boys with Trigger Fingers
00:37:42.802                             : en:The Plan
00:45:23.554                             : en:Plan Blows Apart
00:49:30.258                             : en:6 Months of Prison
00:56:53.868                             : en:Jamming the Signal
01:02:40.548                             : en:Movie Time
01:09:43.053                             : en:Tank Turbulence
01:15:19.639                             : en:Which Way to Berlin?
01:23:06.356                             : en:The Transaction
01:28:54.578                             : en:I Trust You
01:35:56.834                             : en:Exactly Like Call of Duty
01:38:35.951                             : en:Give Me 20 Minutes
01:43:12.519                             : en:Ba the Banana
01:49:42.825                             : en:Showtime
01:57:19.573                             : en:Looking All Over for You
02:07:00.654                             : en:End Credits

Miniatyura

- © Template by MRLG
.torrent yuklash

Yuqori tezlikda va bepul ko‘chirish!

Qanday yuklab olinadi? · Torrent nima o‘zi? · Reyting va cheklovlar

Profil ShX

Lock

Jins:
Yigit
Staj:
1 yil 2 oy
Xabarlar:
49

Qayerdan: Namangan

Taqiq:

Kecha saytdan qidirgandim, katta rahmat

Mavzu yaratish 14-Sen-2019 09:18 (7 daqiqa o‘tgach)

Iqitibos

Profil ShX

MRLG ®

Jins:
Yigit
Staj:
2 yil 3 oy
Xabarlar:
619
Taqiq:

Kinoni tayyorlab qo'yganimga 2 hafta bo'ldi. Trekerga joylashga vaqt yo'q((( Ko'chirishda ham sabr qilasizlar endi.

Mavzu yaratish 14-Sen-2019 09:23 (4 daqiqa o‘tgach)

Iqitibos

Profil ShX

MRLG ®

Jins:
Yigit
Staj:
2 yil 3 oy
Xabarlar:
619
Taqiq:

Tarif rejasi vip bo'lmaganlar! Ipfilter o'rnatib oling. Ushbu relizda tasix abonenti bo'lmagan sid katta tezlikda tarqatmoqda....

Mavzu yaratish 16-Sen-2019 13:29 (2 kun 4 soat o‘tgach)

Iqitibos

Profil ShX

MrBlack

Jins:
Yigit
Staj:
1 yil 8 oy
Xabarlar:
2

Qayerdan: Готем

Taqiq:

Скачка бомаябтику

Mavzu yaratish 21-Sen-2019 11:31 (4 kun o‘tgach)

Iqitibos

Profil ShX

Soft-Release

Jins:
Yigit
Staj:
1 yil 8 oy
Xabarlar:
845

Qayerdan: Kattakurgan

Taqiq:

8735Скачка бомаябтику
MrBlack, Teredo O'rnatilganmi Kompda? Teredo o'rnatish bo'yicha kichik qo'llanma Agar O'rnatilmagan Bo'lsa Mana Bu Sizga Kichik Yordam!

Mavzu yaratish 22-Sen-2019 18:00 (1 kun 6 soat o‘tgach)

Iqitibos

Profil ShX
Xabarlarni ko‘rsatish:    

Hozirgi vaqt: 09-Dek 20:55

Vaqtlar farqi: UTC + 5



Siz mavzu yaratishingiz mumkin emas
Siz xabarlarga javob qaytarishingiz mumkin emas
Siz o‘z xabarlaringizni tahrirlashingiz mumkin emas
Siz o‘z xabarlaringizni o‘chirishingiz mumkin emas
Siz so‘rovlarda ovoz berishingiz mumkin emas
Siz xabalarga fayllarni biriktirishingiz mumkin emas
Siz fayllarni ko‘chirishingiz mumkin emas