˂
˃
Tarqatmalar statistikasi
Ko‘chirib bo‘ldim: [ 10 ]
 
     
 
 

N.U.R.I.K.B.E.K ®

Jins:
Yigit
Staj:
1 yil 11 oy
Xabarlar:
539

Qayerdan: Jizzax. Paxtakor

Taqiq:

- --Sevishganlar | Влюблённые | Dilwale--Chiqqan yili: 2015
Davlat: Xindiston
Janr: Jangari, Komediya, Melodrama.
Davomiyligi: 02:33:31
Tarjima: UZHD O'zbek Tilida.--Rejissyor: Roxit Shetti.--Rollarda: Shohruh Xon, Kajol, Varun Dhawan, Kriti Sanon, Johnny Lever, Sanjay Mishra, Boman Erani, Mukesh Tiwari, Vinod Khanna
Tavsif: Vir Ishuni uchratganda uning quloqlarini sevib qoladi. Qiz ham tez orada unga javob beradi. Ammo Vira akasi Rajga ega, Isha esa dunyoning singlisi. Sevuvchilar qarindoshlariga his-tuyg'ularini aytib berishga qaror qilganda, bu narsa kutilmagan bir burilish qiladi! Sevgi, do'stlik, nafrat va g'amxo'rlik haqida film. Biz Shohruh Xon va Kajolning noyob juftligiga qaraymiz!!!--Videoning sifati: HDRip
Video format: MKV--Video: Xvid 720x304 24fps 1 576 kb/s
Audio: MP3 48000Hz stereo 128kbps O'zbek Tili

Media Info

General
Format : Matroska
Format version : Version 4 / Version 2
File size : 1.83 GiB
Duration : 2 h 33 min
Overall bit rate : 1 706 kb/s
Encoded date : UTC 2019-09-09 14:25:42
Writing application : mkvmerge v15.0.0 ('Duel with the Devil') 64-bit
Writing library : libebml v1.3.5 + libmatroska v1.4.5
Video
ID : 1
Format : MPEG-4 Visual
Format profile : Advanced Simple@L5
Format settings, BVOP : 1
Format settings, QPel : No
Format settings, GMC : No warppoints
Format settings, Matrix : Default (MPEG)
Codec ID : V_MS/VFW/FOURCC / XVID
Codec ID/Hint : XviD
Duration : 2 h 33 min
Bit rate : 1 576 kb/s
Width : 720 pixels
Height : 304 pixels
Display aspect ratio : 2.35:1
Frame rate mode : Constant
Frame rate : 24.000 FPS
Color space : YUV
Chroma subsampling : 4:2:0
Bit depth : 8 bits
Scan type : Progressive
Compression mode : Lossy
Bits/(Pixel*Frame) : 0.300
Stream size : 1.69 GiB (92%)
Writing library : XviD 73
Default : Yes
Forced : No
Audio
ID : 2
Format : MPEG Audio
Format version : Version 1
Format profile : Layer 3
Mode : Joint stereo
Mode extension : MS Stereo
Codec ID : A_MPEG/L3
Codec ID/Hint : MP3
Duration : 2 h 33 min
Bit rate mode : Constant
Bit rate : 128 kb/s
Channel(s) : 2 channels
Sampling rate : 48.0 kHz
Frame rate : 41.667 FPS (1152 SPF)
Compression mode : Lossy
Stream size : 141 MiB (8%)
Title : O'zbek Tili
Language : Uzbek
Default : Yes
Forced : No
LAVHALAR
.torrent yuklash

Yuqori tezlikda va bepul ko‘chirish!

Qanday yuklab olinadi? · Torrent nima o‘zi? · Reyting va cheklovlar

Profil ShX
Xabarlarni ko‘rsatish:    

Hozirgi vaqt: 18-Okt 04:09

Vaqtlar farqi: UTC + 5



Siz mavzu yaratishingiz mumkin emas
Siz xabarlarga javob qaytarishingiz mumkin emas
Siz o‘z xabarlaringizni tahrirlashingiz mumkin emas
Siz o‘z xabarlaringizni o‘chirishingiz mumkin emas
Siz so‘rovlarda ovoz berishingiz mumkin emas
Siz xabalarga fayllarni biriktirishingiz mumkin emas
Siz fayllarni ko‘chirishingiz mumkin emas