˂
˃
 

N.U.R.I.K.B.E.K ®

Jins:
Yigit
Staj:
1 yil 11 oy
Xabarlar:
539

Qayerdan: Jizzax. Paxtakor

Taqiq:


--Koko Siri | Тайна Коко | Coco--Chiqqan yili: 2017
Davlat: AQSH
Janr: Multfilm, Hayoliy, Komediya, Detektiv, Sarguzasht, Oilaviy, Musiqa,
Davomiyligi: 01:45:02
Tarjima 1: SevimliTV O'zbek Tilida.
Tarjima 2: Ko'p Ovozli Rus Tilida.--Rejissyor: Li Ankrich / Adrian Molina.--Rollarni ovozlashtirganlar: Entoni Gonsales, Gael Garsia Bernal, Bendjamin Brett, Alanna Yubak, Rene Viktor, Xayme Kamil, Alfonso Arau, Xerbert Sigensa, Gabriel Iglesias, Lombardo Boyyar, Ana Ofelia Murguyya, Nataliya Kordova.--Tavsif: 12 yoshli Migel Meksika qishloqlarining birida etikdo`zlar oilasida yashaydi va yashirincha musiqachi bo`lishni orzu qiladi. Yashirincha - chunki uning oilaviy ajdodlari musiqani lan`atlangan deb hisoblashadi. Qachonlardir uning katta buvisining otasi o`z xotinini tashlab ketgan, Migelning katta buvisini onasini, Musiqa mavzusi uning oilasida taqiqlangandan beri, uning orzulari, endi Migelga tinch yashashga yo`l qo`ymaydi. Migelning aniqlashicha, u bilan uning sevimli qo`shiqchisi oldinroq vafot etgan Ernesto de la Krus o`rtasida qandaydir noaniq bog`liklik bor. Yigitcha o`z kumirini oldiga O`lganlar yurtiga jo`naydi va o`zining ajdodlarini ruhlarini uchratadi. Migel u yerda Gektor ismli (Sklet ko`rinishidagi) trikster ruh bilan tanishib qoladi va u Migelning yo`l boshichisga aylanadi. Ikkovlon de la Krusni izlashga jo`nashadi.--Videoning sifati: BDRip
Video format: MKV--Video: Xvid 720x304 23.976fps 1 533 kb/s
Audio: MP3 44100Hz stereo 128kbps O'zbek Tili
Audio 2: Dolby AC3 48000Hz 6ch 384kbps Rus Tili--

Media Info

General
Format : Matroska
Format version : Version 4 / Version 2
File size : 1.50 GiB
Duration : 1 h 45 min
Overall bit rate : 2 047 kb/s
Encoded date : UTC 2019-09-09 11:57:47
Writing application : mkvmerge v15.0.0 ('Duel with the Devil') 64-bit
Writing library : libebml v1.3.5 + libmatroska v1.4.5
Video
ID : 1
Format : MPEG-4 Visual
Format profile : Advanced Simple@L5
Format settings, BVOP : 1
Format settings, QPel : No
Format settings, GMC : No warppoints
Format settings, Matrix : Custom
Codec ID : V_MS/VFW/FOURCC / XVID
Codec ID/Hint : XviD
Duration : 1 h 45 min
Bit rate : 1 533 kb/s
Width : 720 pixels
Height : 304 pixels
Display aspect ratio : 2.35:1
Frame rate mode : Constant
Frame rate : 23.976 (23976/1000) FPS
Original frame rate : 23.976 (24000/1001) FPS
Color space : YUV
Chroma subsampling : 4:2:0
Bit depth : 8 bits
Scan type : Progressive
Compression mode : Lossy
Bits/(Pixel*Frame) : 0.292
Stream size : 1.12 GiB (75%)
Writing library : XviD 73
Default : Yes
Forced : No
Audio #1
ID : 2
Format : MPEG Audio
Format version : Version 1
Format profile : Layer 3
Mode : Joint stereo
Mode extension : MS Stereo
Codec ID : A_MPEG/L3
Codec ID/Hint : MP3
Duration : 1 h 45 min
Bit rate mode : Constant
Bit rate : 128 kb/s
Channel(s) : 2 channels
Sampling rate : 44.1 kHz
Frame rate : 38.281 FPS (1152 SPF)
Compression mode : Lossy
Stream size : 96.2 MiB (6%)
Title : O'zbek Tili
Writing library : LAME3.99.5
Language : Uzbek
Default : Yes
Forced : No
Audio #2
ID : 3
Format : AC-3
Format/Info : Audio Coding 3
Format settings, Endianness : Big
Codec ID : A_AC3
Duration : 1 h 45 min
Bit rate mode : Constant
Bit rate : 384 kb/s
Channel(s) : 6 channels
Channel positions : Front: L C R, Side: L R, LFE
Sampling rate : 48.0 kHz
Frame rate : 31.250 FPS (1536 SPF)
Bit depth : 16 bits
Compression mode : Lossy
Stream size : 288 MiB (19%)
Title : Rus Tili
Language : Russian
Service kind : Complete Main
Default : No
Forced : No
LAVHALAR
.torrent yuklash

Yuqori tezlikda va bepul ko‘chirish!

Qanday yuklab olinadi? · Torrent nima o‘zi? · Reyting va cheklovlar

Profil ShX

UmarShoh

Jins:
Yigit
Staj:
1 yil 7 oy
Xabarlar:
402
Taqiq:

N.U.R.I.K.B.E.K, san'atkorlar dabdala qilib dublaj qilishganimi? ag

Mavzu yaratish 09-Sen-2019 20:29 (2 soat 36 daqiqa o‘tgach)

Iqitibos

Profil ShX

N.U.R.I.K.B.E.K ®

Jins:
Yigit
Staj:
1 yil 11 oy
Xabarlar:
539

Qayerdan: Jizzax. Paxtakor

Taqiq:

UmarShoh, yõqdan kõra, boshqa tarjimasini xam beripqolar

Mavzu yaratish 09-Sen-2019 21:20 (50 daqiqa o‘tgach)

Iqitibos

Profil ShX
Xabarlarni ko‘rsatish:    

Hozirgi vaqt: 18-Okt 05:05

Vaqtlar farqi: UTC + 5



Siz mavzu yaratishingiz mumkin emas
Siz xabarlarga javob qaytarishingiz mumkin emas
Siz o‘z xabarlaringizni tahrirlashingiz mumkin emas
Siz o‘z xabarlaringizni o‘chirishingiz mumkin emas
Siz so‘rovlarda ovoz berishingiz mumkin emas
Siz xabalarga fayllarni biriktirishingiz mumkin emas
Siz fayllarni ko‘chirishingiz mumkin emas