˂
˃
Tarqatmalar statistikasi
Ko‘chirmoqdaman: [ 3 ]
Ko‘chirib bo‘ldim: [ 18 ]
 
     
 
 

gnom6862 ®

Jins:
Ko‘rsatilmagan
Staj:
1 yil 11 oy
Xabarlar:
4
Taqiq:

Kiber | Кибер | Blackhat
Chiqqan yili: 2015
Davlat: AQSH
Janr: Jangari, triller, drama, kriminal, detektiv
Davomiyligi: 02:12:57
Tarjima: Professional (dublyaj qilingan)
Rejissyor: Maykl Mann
Rollarda: Kris Xemsvort, Van Lixom, Tan Vey, Viola Devis, Xolt MakKellani, Endi On, Richi Koster, Kristian Borl, Djon Ortis, Yorik van Vageningen, Tayson Chak, Brendon Molale, Denni Bursteyn, Archi Kao, Abxi Sinxa, Djeyson Batler Xarner, Menni Montana, Spenser Garret, Shi Lyan, Kan Mok
Tavsif: Nikolay taniqli dasturchi va ayni paytda kiber-jinoyatchidir. U ushlanib, 15 yilga qamaldi. Bir kun ichida noma'lum xaker katta banklarning himoya tizimlarini buzadi, bu katta qulash xavfini tug'diradi. Hukumat jinoyatchini qanday qilib to'xtatishni bilmaydi, chunki u ilgari imkonsiz deb hisoblangan eng ishonchli kompyuter tizimlariga osongina kirib boradi. Keyin kompyuter dahosi xakerga qarshi kurashishi kerakligi to'g'risida qaror qabul qilinadi va hukumat Nikolasni eslaydi. Unga savdoni taklif qilishadi: u tajovuzkorni to'xtatishga yordam beradi va buning evaziga undan barcha ayblovlar olib tashlanadi. Ikki marta o'ylamasdan, qahramon jozibali taklifni qabul qiladi, hatto uni oldinda qanday halokatli o'yin kutayotganini ham bilmaydi. Yovuz odam o'zining xavfli o'yinida qancha masofani bosib o'tadi va bosh qahramon o'zining dahshatli rejalariga xalaqit bera oladimi?
Videoning sifati: BDRip-AVC
Video format: MKV
Video: х.264, 912x380 (2,40:1), 23.976 fps, 1190 kbps, 0.143 bit/pixel
Audio: MP3, 48 kHz, stereo 192.00 kbps, O'zbekcha
Audio 2: AC3 Dolby Digital, 48 kHz, 3/2 (L,C,R,l,r) + LFE ch, 384.00 kbps, Ruscha
Subtitrlar: Ruscha (to'liq + fors.)

Media Info

General
Unique ID : 18777009189678162963204459446882231488 (0xE20520777A7D00A3BB1E7D41ACF64C0)
Complete name : C:\Users\Administrator\Downloads\Films\Kiber.2015.UZB.RUS.BDRip.x264.-by_Cinerama.Pro.mkv
Format : Matroska
Format version : Version 4
File size : 1.64 GiB
Duration : 2 h 12 min
Overall bit rate mode : Variable
Overall bit rate : 1 767 kb/s
Movie name : Blackhat (2015) - HELLYWOOD
Encoded date : UTC 2019-09-02 17:29:18
Writing application : mkvmerge v36.0.0 ('Is That Jazz?`) 64-bit
Writing library : libebml v1.3.9 + libmatroska v1.5.2
Video
ID : 1
Format : AVC
Format/Info : Advanced Video Codec
Format profile : High@L4.1
Format settings : CABAC / 12 Ref Frames
Format settings, CABAC : Yes
Format settings, Reference fra : 12 frames
Codec ID : V_MPEG4/ISO/AVC
Duration : 2 h 12 min
Bit rate : 1 190 kb/s
Width : 912 pixels
Height : 380 pixels
Display aspect ratio : 2.40:1
Frame rate mode : Constant
Frame rate : 23.976 FPS
Color space : YUV
Chroma subsampling : 4:2:0
Bit depth : 8 bits
Scan type : Progressive
Bits/(Pixel*Frame) : 0.143
Stream size : 1.10 GiB (67%)
Title : potroks
Writing library : x264 core 146 r2538 121396c
Encoding settings : cabac=1 / ref=12 / deblock=1:-2:-2 / analyse=0x3:0x113 / me=umh / subme=11 / psy=1 / psy_rd=1.00:0.03 / mixed_ref=1 / me_range=48 / chroma_me=1 / trellis=2 / 8x8dct=1 / cqm=0 / deadzone=21,11 / fast_pskip=0 / chroma_qp_offset=-3 / threads=12 / lookahead_threads=2 / sliced_threads=0 / nr=0 / decimate=0 / interlaced=0 / bluray_compat=0 / constrained_intra=0 / bframes=13 / b_pyramid=2 / b_adapt=2 / b_bias=0 / direct=3 / weightb=1 / open_gop=0 / weightp=2 / keyint=250 / keyint_min=23 / scenecut=40 / intra_refresh=0 / rc_lookahead=130 / rc=2pass / mbtree=1 / bitrate=1190 / ratetol=1.0 / qcomp=0.72 / qpmin=0 / qpmax=69 / qpstep=4 / cplxblur=20.0 / qblur=0.5 / vbv_maxrate=14000 / vbv_bufsize=14000 / nal_hrd=none / filler=0 / ip_ratio=1.35 / aq=3:0.80
Language : English
Default : Yes
Forced : No
Audio #1
ID : 2
Format : MPEG Audio
Format version : Version 1
Format profile : Layer 3
Format settings : Joint stereo
Codec ID : A_MPEG/L3
Codec ID/Hint : MP3
Duration : 2 h 12 min
Bit rate mode : Variable
Bit rate : 192 kb/s
Channel(s) : 2 channels
Sampling rate : 48.0 kHz
Frame rate : 41.667 FPS (1152 SPF)
Compression mode : Lossy
Stream size : 183 MiB (11%)
Title : by UzBEST
Writing library : LAME3.99.5
Language : Uzbek
Default : Yes
Forced : No
Audio #2
ID : 3
Format : AC-3
Format/Info : Audio Coding 3
Commercial name : Dolby Digital
Codec ID : A_AC3
Duration : 2 h 12 min
Bit rate mode : Constant
Bit rate : 384 kb/s
Channel(s) : 6 channels
Channel layout : L R C LFE Ls Rs
Sampling rate : 48.0 kHz
Frame rate : 31.250 FPS (1536 SPF)
Bit depth : 16 bits
Compression mode : Lossy
Stream size : 365 MiB (22%)
Title : Dub | DD 5.1 @ 384 kbps - Blu-Ray CEE
Language : Russian
Service kind : Complete Main
Default : No
Forced : No
Text #1
ID : 4
Format : UTF-8
Codec ID : S_TEXT/UTF8
Codec ID/Info : UTF-8 Plain Text
Duration : 2 h 8 min
Bit rate : 2 b/s
Count of elements : 51
Stream size : 1.98 KiB (0%)
Title : форс.
Language : Russian
Default : Yes
Forced : No
Text #2
ID : 5
Format : UTF-8
Codec ID : S_TEXT/UTF8
Codec ID/Info : UTF-8 Plain Text
Duration : 2 h 8 min
Bit rate : 51 b/s
Count of elements : 1006
Stream size : 48.0 KiB (0%)
Title : Blu-Ray
Language : Russian
Default : No
Forced : No
Menu
00:00:00.000 : en:00:00:00.000
00:06:14.207 : en:00:06:14.207
00:13:43.281 : en:00:13:43.281
00:20:22.680 : en:00:20:22.680
00:28:04.933 : en:00:28:04.933
00:33:31.509 : en:00:33:31.509
00:38:03.364 : en:00:38:03.364
00:45:32.271 : en:00:45:32.271
00:55:34.998 : en:00:55:34.998
01:00:53.608 : en:01:00:53.608
01:08:17.218 : en:01:08:17.218
01:13:56.641 : en:01:13:56.641
01:21:20.626 : en:01:21:20.626
01:26:56.878 : en:01:26:56.878
01:34:12.188 : en:01:34:12.188
01:39:09.485 : en:01:39:09.485
01:44:23.007 : en:01:44:23.007
01:47:52.049 : en:01:47:52.049
01:55:05.857 : en:01:55:05.857
02:04:52.110 : en:02:04:52.110

Lavhalar

.torrent yuklash

Yuqori tezlikda va bepul ko‘chirish!

Qanday yuklab olinadi? · Torrent nima o‘zi? · Reyting va cheklovlar

Profil ShX

N.U.R.I.K.B.E.K

Jins:
Yigit
Staj:
1 yil 11 oy
Xabarlar:
537

Qayerdan: Jizzax. Paxtakor

Taqiq:

ovozlari unchali tushmapti, kim taxlagan kinoni

Mavzu yaratish 16-Sen-2019 20:38 (13 kun o‘tgach)

Iqitibos

Profil ShX
Xabarlarni ko‘rsatish:    

Hozirgi vaqt: 15-Okt 04:07

Vaqtlar farqi: UTC + 5



Siz mavzu yaratishingiz mumkin emas
Siz xabarlarga javob qaytarishingiz mumkin emas
Siz o‘z xabarlaringizni tahrirlashingiz mumkin emas
Siz o‘z xabarlaringizni o‘chirishingiz mumkin emas
Siz so‘rovlarda ovoz berishingiz mumkin emas
Siz xabalarga fayllarni biriktirishingiz mumkin emas
Siz fayllarni ko‘chirishingiz mumkin emas