˂
˃
Tarqatmalar statistikasi
Yoʻq
 
     
 
 

farrux1981 ®

Jins:
Yigit
Staj:
4 oy 18 kun
Xabarlar:
37
Taqiq:

MEHMED _-Мехмед-_MEHMED- -MEHMED-Asl ismi: Mehmed Bir Jihan Fatihi
Janr: Drama / Tarix
Mamlakat: Turkiya
Rejissor: Jevdet Merjan
Aktyorlar: Kenan Imirzalyoglu , Chetin Tekindor , Ismoil Demirgi , Funda Eryigit , Büshra Develi , Hazal Filiz Kuchukköse , Gyurkan Uygun , Ertan Saban , Cedef Avcı , Toprak Saglam-Jahon premerasi : 03/20/2018
Sifat: WEB
Ovoz: o'zbek tilida--

Qo'shimcha ma'lumot

"Mehmed - dunyoni zabt etuvchi. Fotih" turkumidagi voqealar haqiqiy tarixiy voqealar haqida hikoya qiladi. Syujet Usmonli imperiyasining taniqli va nufuzli rahbari Mehmedga qaratilgan. Bir kishi otasining o'lganligini bilib qoladi. Endi u Edirnaga borishi kerak. Bu uning uchun fojia bo'lsa ham, endi u barcha kuchni oladi. Erkaklar azob chekmasliklari kerak, ayniqsa katta imperiyaning ulushi sizga bog'liq bo'lsa. Mehmed har doim Konstantinopolni egallashini orzu qilgan. Ammo bu hech qachon oson bo'lmagan. So'nggi yillarda hech kim buni qila olmadi. Shuning uchun uning orzusini amalga oshirish oson bo'lmaydi. Uning yo'lida ko'p to'siqlar bo'ladi. Mehmed, agar Vizantiyaga qarshi bo'lsa, unda butun xristian olami unga qarshi bo'ladi. Ammo tush tinchlanmaydi, shuning uchun hukmdor buni qanday amalga oshirish bo'yicha rejalarni ishlab chiqishni boshlaydi. U taxtga o'tirganidan boshlab tez orada harbiy strategiyani ishlab chiqish ustida ish olib bormoqda. Uning hukmdor bo'lganidan ikki yil o'tdi. Va Mehmed orzu qilgan narsaga yaqinlashdi. Uning armiyasi Konstantinopolni qurshab oldi. Endi tirik qolish va g'olib sifatida shahar darvozalariga kirish uchun dushmaningizni siqib chiqarish qoladi ...
-

Diqqat bilan o'qing

Seriyalarning tavsifi :2018 yil qishda D yangi turk tarixiy seriyasini namoyish qilishni boshlaydi, Mehmed: 15-asrda Buyuk Usmonli imperiyasida sodir bo'lgan voqealar aks etgan. Mehmed II, uning hayoti, boshqaruv yillari va harbiy yurishlari va bosqinlari yilnomalari tomoshabinlarning diqqat markazida bo'ladi.
Buyuk istilochining otasi Sulton Murod II bo'lgan. Mehmed uchinchi o'g'il edi va tug'ilish huquqiga ko'ra taxtga da'vogarlik qila olmadi. Ammo ikkala katta akalar ham vafot etdilar va shuning uchun uni taxt vorisi sifatida tayyorlashga kirishdilar. Usmonli imperiyasining kelajakdagi hukmdori ma'lumotli odam, dono siyosatchi, harbiy strateg va jasur jangchi bo'lishi kerak. Shu sababli Mehmed yoshligidan falsafa, tarix, munajjimlik, geografiya va boshqa fanlarni o'rgangan. Bundan tashqari, u bir nechta xorijiy tillarni bilishi mumkin edi. Bularning barchasi Mehmedga dono va muqaddas hukmdor bo'lishga yordam berdi.
Shuningdek, u ikki marta taxtga ko'tarilgani bilan tanilgan. Bu birinchi marta u aslida bolaligida, o'n ikki yoshli bola bo'lganida - otasi Murod II ning ruxsati bilan, ustozi Xalil poshoning ko'magi bilan bo'lgan. Ammo keyin u o'zining tajribasizligi tufayli hokimiyat bilan kurasha olmadi va taxtdan chetlatildi. Ammo otasining o'limidan so'ng u hukmdor, buyuk jangchi, Konstantinopolning kelajakdagi istilosi bo'ldi.
Ammo II Mehmed nafaqat zabt etuvchi, balki progressiv hukmdor sifatida ham tanilgan. Teatr san'ati rivojiga hissa qo'shdi, ko'plab maktablar qurdi, ko'plab islohotlarning qonun chiqaruvchisi bo'ldi.
Va albatta, tomoshabinlar fitnalar, sevgi ishlari, raqobat va boshqa narsalarning guvohi bo'lishadi, ularsiz yagona sulton yashay olmaydi.
-

Skrinshotlar

[img]file:///C:/Users/MrThe%20Best/Downloads/Telegram%20Desktop/image_2019-09-01_15-08-56.png[/img]
-

Media Info

General
Complete name : E:\Seriallar\Turkiya\Mehmed (O'zbek tilida)\MEXMIT 1,2,QISIM FULLHD 1080.mp4.mp4
Format : MPEG-4
Format profile : Base Media
Codec ID : isom (isom/iso2/avc1/mp41)
File size : 525 MiB
Duration : 1 h 5 min
Overall bit rate : 1 126 kb/s
Video
ID : 1
Format : AVC
Format/Info : Advanced Video Codec
Format profile : High@L3
Format settings : CABAC / 4 Ref Frames
Format settings, CABAC : Yes
Format settings, Reference fra : 4 frames
Format settings, GOP : M=1, N=75
Codec ID : avc1
Codec ID/Info : Advanced Video Coding
Duration : 1 h 5 min
Duration_FirstFrame : 46 ms
Bit rate : 1 000 kb/s
Width : 852 pixels
Height : 478 pixels
Display aspect ratio : 16:9
Frame rate mode : Constant
Frame rate : 25.000 FPS
Color space : YUV
Chroma subsampling : 4:2:0
Bit depth : 8 bits
Scan type : Progressive
Bits/(Pixel*Frame) : 0.098
Stream size : 466 MiB (89%)
Writing library : x264 core 152 r2851 ba24899
Encoding settings : cabac=1 / ref=4 / deblock=1:2:2 / analyse=0x3:0x113 / me=hex / subme=2 / psy=1 / psy_rd=1.00:0.00 / mixed_ref=1 / me_range=16 / chroma_me=1 / trellis=0 / 8x8dct=1 / cqm=0 / deadzone=21,11 / fast_pskip=1 / chroma_qp_offset=0 / threads=15 / lookahead_threads=3 / sliced_threads=0 / nr=0 / decimate=1 / interlaced=0 / bluray_compat=0 / constrained_intra=0 / bframes=0 / weightp=2 / keyint=75 / keyint_min=7 / scenecut=0 / intra_refresh=0 / rc_lookahead=40 / rc=abr / mbtree=1 / bitrate=1000 / ratetol=1.0 / qcomp=0.60 / qpmin=10 / qpmax=51 / qpstep=4 / ip_ratio=0.91 / aq=1:1.00
Tagged date : UTC 2018-12-31 04:42:36
Codec configuration box : avcC
Audio
ID : 2
Format : AAC LC
Format/Info : Advanced Audio Codec Low Complexity
Codec ID : mp4a-40-2
Duration : 1 h 5 min
Duration_LastFrame : -6 ms
Bit rate mode : Constant
Bit rate : 125 kb/s
Channel(s) : 2 channels
Channel layout : L R
Sampling rate : 44.1 kHz
Frame rate : 43.066 FPS (1024 SPF)
Compression mode : Lossy
Stream size : 58.3 MiB (11%)
Default : Yes
Alternate group : 1
Tagged date : UTC 2018-12-31 04:42:36
--SIZLAR UCHUN MAXSUS FARRUX1981 TOMONIDAN
.torrent yuklash

Yuqori tezlikda va bepul ko‘chirish!

Qanday yuklab olinadi? · Torrent nima o‘zi? · Reyting va cheklovlar

Profil ShX

mrthe_best

Jins:
Ko‘rsatilmagan
Staj:
8 oy 17 kun
Xabarlar:
17
Taqiq:

AKA

Mavzu yaratish 01-Sen-2019 15:34 (7 daqiqa o‘tgach)

Iqitibos

Profil ShX
Xabarlarni ko‘rsatish:    

Hozirgi vaqt: 15-Okt 20:01

Vaqtlar farqi: UTC + 5



Siz mavzu yaratishingiz mumkin emas
Siz xabarlarga javob qaytarishingiz mumkin emas
Siz o‘z xabarlaringizni tahrirlashingiz mumkin emas
Siz o‘z xabarlaringizni o‘chirishingiz mumkin emas
Siz so‘rovlarda ovoz berishingiz mumkin emas
Siz xabalarga fayllarni biriktirishingiz mumkin emas
Siz fayllarni ko‘chirishingiz mumkin emas