˂
˃
Tarqatmalar statistikasi
Ko‘chirmoqdaman: [ 1 ]
Ko‘chirib bo‘ldim: [ 11 ]
 
     
 
 

gnom6862 ®

Jins:
Ko‘rsatilmagan
Staj:
2 yil
Xabarlar:
4
Taqiq:

Matritsa | Матрица | The Matrix
Chiqqan yili: 1999
Davlat: AQSH
Janr: fantastika, jangari
Davomiyligi: 2:16:17
Tarjima: Professional (dublyaj qilingan)
Rejissyor: Andi Vachovski, Lana VachoVski
Rollarda: Kianu Rivz, Lourens Fishbyorn, Kerri-Enn Moss, Xyugo Uiving, Gloriya Foster, Djo Pantoliano, Markus Chong, Pol Goddard, Robert Teylor, Djulien Araxanga, Mett Doran, Belinda MakKlori, Entoni Rey Parker, Stiv Dodd
Tavsif: Tomas Andersonning hayoti ikki qismga bo'linadi: kun davomida u eng oddiy ofis ishchisidir, u o'z rahbarlaridan tanqidlarni qabul qiladi, va kechasi u Neo ismli xakerga aylanadi va tarmoqqa u kira olmaydigan joy yo'q. Ammo bir marta hamma narsa o'zgaradi - qahramon beixtiyor dahshatli haqiqatni bilib oladi: uni o'rab turgan narsa xayoldan boshqa narsa emas, Matritsa va odamlar shunchaki insoniyatni o'ziga tortadigan sun'iy aql uchun kuch manbai. Faqatgina Neo to'satdan to'satdan yot va dahshatli dunyoda kuchlar muvozanatini o'zgartira oladi ...
Videoning sifati: BDRip
Video format: MKV
Video: 1024x424 (2,40:1), 23,976 fps, H264 ~ 1396 kbps avg, 0.134 bit/pixel
Audio: 48 kHz, MP3, stereo 192 kbps DUB, O'zbekcha
Audio 2: 48 kHz, Dolby Digital AC3 5.1, 448 kbps DUB, Ruscha
Audio 3: 48 kHz, Dolby Digital AC3 5.1, 448 kbps, Inglizcha
Subtitrlar: Rus, rus (Goblin), ingliz

Media Info

General
Unique ID : 274843744876968982632421944837506518220 (0xCEC4FAD60C3343D32F26D9EBFB02CCCC)
Complete name : C:\Users\Administrator\Downloads\Films\Matritsa (Матрица) 1999 BDRip-AVC Uzb Rus Eng.mkv
Format : Matroska
Format version : Version 4
File size : 2.37 GiB
Duration : 2 h 16 min
Overall bit rate mode : Variable
Overall bit rate : 2 486 kb/s
Movie name : Matrica.1999.BDRip-AVC_[New-team]_by_AVP_Studio
Encoded date : UTC 2019-08-27 16:15:34
Writing application : mkvmerge v37.0.0 ('Leave It') 64-bit
Writing library : libebml v1.3.9 + libmatroska v1.5.2
Video
ID : 1
Format : AVC
Format/Info : Advanced Video Codec
Format profile : High@L4.1
Format settings : CABAC / 8 Ref Frames
Format settings, CABAC : Yes
Format settings, Reference fra : 8 frames
Codec ID : V_MPEG4/ISO/AVC
Duration : 2 h 16 min
Bit rate : 1 396 kb/s
Width : 1 024 pixels
Height : 424 pixels
Display aspect ratio : 2.40:1
Frame rate mode : Constant
Frame rate : 23.976 (24000/1001) FPS
Color space : YUV
Chroma subsampling : 4:2:0
Bit depth : 8 bits
Scan type : Progressive
Bits/(Pixel*Frame) : 0.134
Stream size : 1.33 GiB (56%)
Title : Источник BDRemux
Writing library : x264 core 138 r2356 a1d3d17
Encoding settings : cabac=1 / ref=8 / deblock=1:-3:-2 / analyse=0x3:0x113 / me=umh / subme=10 / psy=1 / psy_rd=1.00:0.05 / mixed_ref=1 / me_range=32 / chroma_me=1 / trellis=2 / 8x8dct=1 / cqm=0 / deadzone=21,11 / fast_pskip=0 / chroma_qp_offset=-3 / threads=6 / lookahead_threads=1 / sliced_threads=0 / nr=0 / decimate=0 / interlaced=0 / bluray_compat=0 / constrained_intra=0 / bframes=8 / b_pyramid=2 / b_adapt=2 / b_bias=0 / direct=3 / weightb=1 / open_gop=0 / weightp=2 / keyint=240 / keyint_min=24 / scenecut=40 / intra_refresh=0 / rc_lookahead=40 / rc=2pass / mbtree=1 / bitrate=1396 / ratetol=1.0 / qcomp=0.60 / qpmin=0 / qpmax=69 / qpstep=4 / cplxblur=20.0 / qblur=0.5 / ip_ratio=1.40 / aq=1:1.00
Language : English
Default : Yes
Forced : No
Audio #1
ID : 2
Format : MPEG Audio
Format version : Version 1
Format profile : Layer 3
Format settings : Joint stereo
Codec ID : A_MPEG/L3
Codec ID/Hint : MP3
Duration : 2 h 16 min
Bit rate mode : Variable
Bit rate : 192 kb/s
Channel(s) : 2 channels
Sampling rate : 48.0 kHz
Frame rate : 41.667 FPS (1152 SPF)
Compression mode : Lossy
Stream size : 187 MiB (8%)
Title : by UzBEST
Writing library : LAME3.99.5
Language : Russian
Default : Yes
Forced : No
Audio #2
ID : 3
Format : AC-3
Format/Info : Audio Coding 3
Commercial name : Dolby Digital
Codec ID : A_AC3
Duration : 2 h 16 min
Bit rate mode : Constant
Bit rate : 448 kb/s
Channel(s) : 6 channels
Channel layout : L R C LFE Ls Rs
Sampling rate : 48.0 kHz
Frame rate : 31.250 FPS (1536 SPF)
Bit depth : 16 bits
Compression mode : Lossy
Stream size : 437 MiB (18%)
Title : Источник BDRemux Dolby Digital 5,1 448 kbps DUB
Language : Russian
Service kind : Complete Main
Default : No
Forced : No
Audio #3
ID : 4
Format : AC-3
Format/Info : Audio Coding 3
Commercial name : Dolby Digital
Codec ID : A_AC3
Duration : 2 h 16 min
Bit rate mode : Constant
Bit rate : 448 kb/s
Channel(s) : 6 channels
Channel layout : L R C LFE Ls Rs
Sampling rate : 48.0 kHz
Frame rate : 31.250 FPS (1536 SPF)
Bit depth : 16 bits
Compression mode : Lossy
Stream size : 437 MiB (18%)
Title : Источник BDRemux Dolby Digital 5,1 448 kbps
Language : English
Service kind : Complete Main
Default : No
Forced : No
Text #1
ID : 5
Format : UTF-8
Codec ID : S_TEXT/UTF8
Codec ID/Info : UTF-8 Plain Text
Duration : 2 h 15 min
Bit rate : 63 b/s
Count of elements : 1370
Stream size : 63.0 KiB (0%)
Title : Источник BDRemux SoftSub (srt)
Language : Russian
Default : No
Forced : No
Text #2
ID : 6
Format : UTF-8
Codec ID : S_TEXT/UTF8
Codec ID/Info : UTF-8 Plain Text
Duration : 2 h 8 min
Bit rate : 67 b/s
Count of elements : 1379
Stream size : 62.9 KiB (0%)
Title : SoftSub (srt) Гоблин
Language : Russian
Default : No
Forced : No
Text #3
ID : 7
Format : UTF-8
Codec ID : S_TEXT/UTF8
Codec ID/Info : UTF-8 Plain Text
Duration : 2 h 7 min
Bit rate : 41 b/s
Count of elements : 1343
Stream size : 38.8 KiB (0%)
Title : Источник BDRemux SoftSub (srt)
Language : English
Default : No
Forced : No
Menu
00:00:00.000 : en:Chapter 1
00:03:25.789 : en:Chapter 2
00:06:35.645 : en:Chapter 3
00:09:42.665 : en:Chapter 4
00:11:58.301 : en:Chapter 5
00:16:47.423 : en:Chapter 6
00:21:33.542 : en:Chapter 7
00:25:08.590 : en:Chapter 8
00:28:51.146 : en:Chapter 9
00:32:25.193 : en:Chapter 10
00:35:21.870 : en:Chapter 11
00:38:40.902 : en:Chapter 12
00:44:22.577 : en:Chapter 13
00:46:33.541 : en:Chapter 14
00:48:57.852 : en:Chapter 15
00:53:31.291 : en:Chapter 16
00:56:32.139 : en:Chapter 17
00:59:01.288 : en:Chapter 18
01:01:08.582 : en:Chapter 19
01:05:16.496 : en:Chapter 20
01:07:46.813 : en:Chapter 21
01:12:33.432 : en:Chapter 22
01:17:49.582 : en:Chapter 23
01:21:03.108 : en:Chapter 24
01:25:05.350 : en:Chapter 25
01:29:45.130 : en:Chapter 26
01:31:27.565 : en:Chapter 27
01:37:25.256 : en:Chapter 28
01:41:04.976 : en:Chapter 29
01:44:20.337 : en:Chapter 30
01:47:00.497 : en:Chapter 31
01:50:18.529 : en:Chapter 32
01:52:56.687 : en:Chapter 33
01:56:36.907 : en:Chapter 34
01:58:49.372 : en:Chapter 35
02:02:27.423 : en:Chapter 36
02:05:41.784 : en:Chapter 37
02:08:46.802 : en:Chapter 38
02:09:30.262 : en:Chapter 39
02:11:20.164 : en:Chapter 40

Lavhalar

.torrent yuklash

Yuqori tezlikda va bepul ko‘chirish!

Qanday yuklab olinadi? · Torrent nima o‘zi? · Reyting va cheklovlar



So‘ngi marta tahrirlandi: gnom6862 (2019-08-28 00:20), Jami tahrirlangan 1 marta
Profil ShX

gnom6862 ®

Jins:
Ko‘rsatilmagan
Staj:
2 yil
Xabarlar:
4
Taqiq:

Mirdan yuklandi TAS IX emas. Viplar ko'chirib olib tarqatinglar

Mavzu yaratish 27-Avg-2019 23:21 (1 soat 15 daqiqa o‘tgach)

Iqitibos

Profil ShX

MrBlack

Jins:
Yigit
Staj:
1 yil 6 oy
Xabarlar:
2

Qayerdan: Готем

Taqiq:

Qolgan qismlarni qachon yuklaysiz ?

Mavzu yaratish 23-Sen-2019 09:17 (26 kun o‘tgach)

Iqitibos

Profil ShX
Xabarlarni ko‘rsatish:    

Hozirgi vaqt: 18-Okt 03:30

Vaqtlar farqi: UTC + 5



Siz mavzu yaratishingiz mumkin emas
Siz xabarlarga javob qaytarishingiz mumkin emas
Siz o‘z xabarlaringizni tahrirlashingiz mumkin emas
Siz o‘z xabarlaringizni o‘chirishingiz mumkin emas
Siz so‘rovlarda ovoz berishingiz mumkin emas
Siz xabalarga fayllarni biriktirishingiz mumkin emas
Siz fayllarni ko‘chirishingiz mumkin emas