˂
˃
Tarqatmalar statistikasi
Yoʻq
 
     
 
 

Lock ®

Jins:
Yigit
Staj:
1 yil
Xabarlar:
49

Qayerdan: Namangan

Taqiq:

Don Kixot bolalari | Дети Дон Кихота
--Chiqqan yili: 1966
Davlat: SSSR
Janr: Drama, komediya
Davomiyligi: 01:16:41
Tarjima: Professional (dublyaj qilingan)
Rejissyor: Yevgeniy Karelov-Rollarda: Anatoliy Papanov, Lev Prigunov, Natalya Fateyeva, Nikolay Parfyonov, Natalya Sedix, Valentina Berezutskaya, Vladimir Korenev, Vera Orlova, Andrey Belyaninov, Zoya Vasilkova-Tavsif: Film tug'ruqxona shifokorining oilasi haqida.U qattiq axloq me'yorlariga rioya qilgani uchun, unga Don Kixot deb laqab qo'yishgan.Qahramonimiz barcha farzandlarini bir hil ruhda tarbiyalaydi,garchi farzandlari turli xil va jiddiy,kulgili tabiatga ega bo'lsalar ham.-Videoning sifati: BDRip-AVC
Video format: MKV
Video: MPEG4, 1920x1080 (16:9), 1431 kbps, 24,0 fps
Audio: Rus tilida / AAC / 44.1 kHz / 128 kbps / RUS
Audio 2: Uzbek tilida/ AAC / 2.0 / 48 kHz / 192 kbps / UZB
-

Media Info

General
Unique ID : 308669485787958340010192725566025323802 (0xE837949F908F732FDEF8C25CC27B551A)
Complete name : E:\MEDIA\Перевод\Мосфильм\Tayyor\Дети Дон-Кихота (драма-комедия, реж. Евгений Карелов, 1966) uzb-rus.mkv
Format : Matroska
Format version : Version 4
File size : 962 MiB
Duration : 1 h 16 min
Overall bit rate : 1 754 kb/s
Encoded date : UTC 2019-05-30 04:25:39
Writing application : mkvmerge v30.1.0 ('Forever And More') 64-bit
Writing library : libebml v1.3.6 + libmatroska v1.4.9
Video
ID : 1
Format : AVC
Format/Info : Advanced Video Codec
Format profile : High@L4
Format settings : CABAC / 3 Ref Frames
Format settings, CABAC : Yes
Format settings, Reference fra : 3 frames
Codec ID : V_MPEG4/ISO/AVC
Duration : 1 h 16 min
Bit rate : 1 431 kb/s
Width : 1 920 pixels
Height : 1 080 pixels
Display aspect ratio : 16:9
Frame rate mode : Constant
Frame rate : 24.000 FPS
Color space : YUV
Chroma subsampling : 4:2:0
Bit depth : 8 bits
Scan type : Progressive
Bits/(Pixel*Frame) : 0.029
Stream size : 785 MiB (82%)
Writing library : x264 core 155 r2901 7d0ff22
Default : Yes
Forced : No
Color range : Limited
Color primaries : BT.709
Transfer characteristics : BT.709
Matrix coefficients : BT.709
Audio #1
ID : 2
Format : AAC LC
Format/Info : Advanced Audio Codec Low Complexity
Codec ID : A_AAC-2
Duration : 1 h 16 min
Bit rate : 128 kb/s
Channel(s) : 2 channels
Channel layout : L R
Sampling rate : 44.1 kHz
Frame rate : 43.066 FPS (1024 SPF)
Compression mode : Lossy
Stream size : 70.2 MiB (7%)
Language : Russian
Default : Yes
Forced : No
Audio #2
ID : 3
Format : AAC LC
Format/Info : Advanced Audio Codec Low Complexity
Codec ID : A_AAC-2
Duration : 1 h 16 min
Bit rate : 192 kb/s
Channel(s) : 2 channels
Channel layout : L R
Sampling rate : 48.0 kHz
Frame rate : 46.875 FPS (1024 SPF)
Compression mode : Lossy
Stream size : 105 MiB (11%)
Language : Uzbek
Default : No
Forced : No
"Lavhalar"
.torrent yuklash

Yuqori tezlikda va bepul ko‘chirish!

Qanday yuklab olinadi? · Torrent nima o‘zi? · Reyting va cheklovlar

Profil ShX
Xabarlarni ko‘rsatish:    

Hozirgi vaqt: 15-Okt 19:34

Vaqtlar farqi: UTC + 5



Siz mavzu yaratishingiz mumkin emas
Siz xabarlarga javob qaytarishingiz mumkin emas
Siz o‘z xabarlaringizni tahrirlashingiz mumkin emas
Siz o‘z xabarlaringizni o‘chirishingiz mumkin emas
Siz so‘rovlarda ovoz berishingiz mumkin emas
Siz xabalarga fayllarni biriktirishingiz mumkin emas
Siz fayllarni ko‘chirishingiz mumkin emas