˂
˃
Tarqatmalar statistikasi
Ko‘chirib bo‘ldim: [ 7 ]
 
     
 
 

N.U.R.I.K.B.E.K ®

Jins:
Yigit
Staj:
1 yil 11 oy
Xabarlar:
539

Qayerdan: Jizzax. Paxtakor

Taqiq:


--Godzilla 2; Mahluqlar Qiroli | Годзилла 2: Король Mонстров | Godzilla: King of the Monsters-- Chiqqan yili: 2019
Davlat: AQSH, Xitoy
Janr: Fantastik, Hayoliy, Jangari, Sarguzasht.
Davomiyligi: 02:11:39
Tarjima: MY5 O'zbek Tilida.--Rejissyor: Maykl Dogerti.--Rollarda: Kayl Chandler, Vera Farmiga, Millie Bobby Brown, Ken Vatanabe, Chjan Zisi, Bradley Whitford, Sally Hawkins, Charlz Raqs, Tomas Middleditch, Oysha Xaynds.--Tavsif: Bu hikoya "monarx" kriptozoologik agentligining yirik hayvonlarni qamrab olish bo'yicha qahramonlik harakati haqida hikoya qiladi. Bu safar kuchli Godzillaga qarshi Motra, Rodan va ultimatum kaizyu - uch boshli hayvon King Gidora. Vaqt o'tishi bilan yarim unutilgan afsonalarga aylangan bu qadimgi superkompyuterlar yana jangga qo'shilish uchun isyon ko'targanda, insoniyat bir chetga surib, o'lishga harakat qilmoqda.--Videoning sifati: WEBRip HEVC 720p
Video format: MKV--Video: HVC1 1280x536 23.976fps 882 kb/s
Audio: MP3 48000Hz stereo 128kbps O'zbek Tili
--

Media Info

General
Format : Matroska
Format version : Version 4 / Version 2
File size : 953 MiB
Duration : 2 h 11 min
Overall bit rate : 1 012 kb/s
Movie name : PSArips.com | Godzilla.King.of.the.Monsters.2019.720p.WEB-DL.2CH.x265.HEVC-PSA
Encoded date : UTC 2019-08-14 20:52:55
Writing application : mkvmerge v15.0.0 ('Duel with the Devil') 64-bit
Writing library : libebml v1.3.5 + libmatroska v1.4.5
Video
ID : 1
Format : HEVC
Format/Info : High Efficiency Video Coding
Format profile : Main@L3.1@Main
Codec ID : V_MPEGH/ISO/HEVC
Duration : 2 h 11 min
Bit rate : 882 kb/s
Width : 1 280 pixels
Height : 536 pixels
Display aspect ratio : 2.40:1
Frame rate mode : Constant
Frame rate : 23.976 (24000/1001) FPS
Color space : YUV
Chroma subsampling : 4:2:0
Bit depth : 8 bits
Bits/(Pixel*Frame) : 0.054
Stream size : 831 MiB (87%)
Default : Yes
Forced : No
Audio
ID : 2
Format : MPEG Audio
Format version : Version 1
Format profile : Layer 3
Mode : Joint stereo
Mode extension : MS Stereo
Codec ID : A_MPEG/L3
Codec ID/Hint : MP3
Duration : 2 h 11 min
Bit rate mode : Constant
Bit rate : 128 kb/s
Channel(s) : 2 channels
Sampling rate : 48.0 kHz
Frame rate : 41.667 FPS (1152 SPF)
Compression mode : Lossy
Stream size : 121 MiB (13%)
Title : O'zbek Tili
Writing library : LAME3.99.5
Language : Uzbek
Default : Yes
Forced : No
LAVHALAR
.torrent yuklash

Yuqori tezlikda va bepul ko‘chirish!

Qanday yuklab olinadi? · Torrent nima o‘zi? · Reyting va cheklovlar

Profil ShX

N.U.R.I.K.B.E.K ®

Jins:
Yigit
Staj:
1 yil 11 oy
Xabarlar:
539

Qayerdan: Jizzax. Paxtakor

Taqiq:

hatto my5 da bunaqa tiniq farmatda bermadi.

Mavzu yaratish 15-Avg-2019 02:31 (2 daqiqa o‘tgach)

Iqitibos

Profil ShX

farrux1981

Jins:
Yigit
Staj:
4 oy 20 kun
Xabarlar:
37
Taqiq:

razdacha bering

Mavzu yaratish 15-Avg-2019 06:41 (4 soat o‘tgach)

Iqitibos

Profil ShX

Lock

Jins:
Yigit
Staj:
1 yil
Xabarlar:
49

Qayerdan: Namangan

Taqiq:

Oformleniyaga gap bo'lishi mumkinmas

Mavzu yaratish 15-Avg-2019 09:06 (2 soat 24 daqiqa o‘tgach)

Iqitibos

Profil ShX
Xabarlarni ko‘rsatish:    

Hozirgi vaqt: 18-Okt 03:49

Vaqtlar farqi: UTC + 5



Siz mavzu yaratishingiz mumkin emas
Siz xabarlarga javob qaytarishingiz mumkin emas
Siz o‘z xabarlaringizni tahrirlashingiz mumkin emas
Siz o‘z xabarlaringizni o‘chirishingiz mumkin emas
Siz so‘rovlarda ovoz berishingiz mumkin emas
Siz xabalarga fayllarni biriktirishingiz mumkin emas
Siz fayllarni ko‘chirishingiz mumkin emas