˂
˃
Tarqatmalar statistikasi
Ko‘chirmoqdaman: [ 3 ]
Ko‘chirib bo‘ldim: [ 4 ]
 
     
 
 

Soft-Release ®

Jins:
Yigit
Staj:
1 yil 7 oy
Xabarlar:
835

Qayerdan: Kattakurgan

Taqiq:

Qasoskorlar Intiho / Мстители: Финал / Avengers: Endgame -Chiqqan Yili: 2019
Davlat: AQSH
Janr: Fantastika, Fentezi, Jangari, Sarguzasht
Davomiyligi: 03:01:09
Tarjima: Dublyaj Qilingan [iTunes] + Professional (Ko'p Ovozli) [MY5] + Professional (Ko'p Ovozli) [Yoshlar] +[Original]-Subtitrlar: Inglizcha (SDH)-Rejissyor: Entoni Russo, Jo Russo-Rollarda: Bri Larson, Linda Kardellini, Skarlett Yoxanson, Karen Gillan, Tessa Tompson, Robert Deuni ml, Kris Hemsvort, Kris Evans, Evandjilin Lelli, Heyli Etvell, Mark Rufallo, Jeremi Renner, Don Chidl, Pol Red-Tavsif: Qasoskorlar jamoasining omon qolgan a'zolari va ularning ittifoqchilari kuchli titan Tanosning vayronagarchilik harakatlariga qarshi turishga yordam beradigan yangi reja ishlab chiqishi kerak. Tarixdagi eng keng miqyosli va fojiali janglardan keyin ular xato qila olmaydilar.- -Sifat: BDRip 2160p HEVC 10bit
Format: MKV
Video: HEVC HDR, 2618 kb/s, 3840X1616
Audio №1: AC3, 6 ch, 384 kb/s | RUS
Audio №2: AAC, 8 ch, 297 kb/s | ENG
Audio №3: MP3, 2 ch, 128 kb/s | Yoshlar
Audio №4: MP3, 2 ch, 128 kb/s | MY5-

MediaInfo

General
Unique ID : 89166231278864361847887008632874147732 (0x4314CA9EBFA7F584ECBEB9A3BEA71F94)
Complete name : Перевод Фильмы Узбекиский\Avengers.Endgame.2019.2160p.10bit.HDR.BluRay.8CH.x265.HEVC.mkv
Format : Matroska
Format version : Version 4
File size : 4.50 GiB
Duration : 3 h 1 min
Overall bit rate : 3 551 kb/s
Movie name : Avengers.Endgame.2019.2160p.10bit.HDR.BluRay.8CH.x265.HEVC
Encoded date : UTC 2019-08-12 19:00:12
Writing application : mkvmerge v34.0.0 ('Sight and Seen') 64-bit
Writing library : libebml v1.3.7 + libmatroska v1.5.0
Video
ID : 1
Format : HEVC
Format/Info : High Efficiency Video Coding
Format profile : Main 10@L5@Main
HDR format : SMPTE ST 2086, HDR10 compatible
Codec ID : V_MPEGH/ISO/HEVC
Duration : 3 h 1 min
Bit rate : 2 618 kb/s
Width : 3 840 pixels
Height : 1 616 pixels
Display aspect ratio : 2.40:1
Frame rate mode : Constant
Frame rate : 23.976 (24000/1001) FPS
Color space : YUV
Chroma subsampling : 4:2:0
Bit depth : 10 bits
Bits/(Pixel*Frame) : 0.018
Stream size : 3.31 GiB (74%)
Default : Yes
Forced : No
Color range : Limited
Color primaries : BT.2020
Transfer characteristics : PQ
Matrix coefficients : BT.2020 non-constant
Mastering display color pri : Display P3
Mastering display luminance : min: 0.0050 cd/m2, max: 4000 cd/m2
Audio #1
ID : 2
Format : MPEG Audio
Format version : Version 1
Format profile : Layer 3
Format settings : Joint stereo / MS Stereo
Codec ID : A_MPEG/L3
Codec ID/Hint : MP3
Duration : 3 h 1 min
Bit rate mode : Constant
Bit rate : 128 kb/s
Channel(s) : 2 channels
Sampling rate : 48.0 kHz
Frame rate : 41.667 FPS (1152 SPF)
Compression mode : Lossy
Stream size : 166 MiB (4%)
Title : Yoshlar
Writing library : LAME3.99.5
Language : Uzbek
Default : Yes
Forced : No
Audio #2
ID : 3
Format : MPEG Audio
Format version : Version 1
Format profile : Layer 3
Format settings : Joint stereo / MS Stereo
Codec ID : A_MPEG/L3
Codec ID/Hint : MP3
Duration : 3 h 1 min
Bit rate mode : Constant
Bit rate : 128 kb/s
Channel(s) : 2 channels
Sampling rate : 48.0 kHz
Frame rate : 41.667 FPS (1152 SPF)
Compression mode : Lossy
Stream size : 166 MiB (4%)
Title : MY5
Writing library : LAME3.99.5
Language : Uzbek
Default : No
Forced : No
Audio #3
ID : 4
Format : AC-3
Format/Info : Audio Coding 3
Commercial name : Dolby Digital
Codec ID : A_AC3
Duration : 3 h 1 min
Bit rate mode : Constant
Bit rate : 384 kb/s
Channel(s) : 6 channels
Channel layout : L R C LFE Ls Rs
Sampling rate : 48.0 kHz
Frame rate : 31.250 FPS (1536 SPF)
Bit depth : 16 bits
Compression mode : Lossy
Stream size : 498 MiB (11%)
Title : iTunes
Language : Russian
Service kind : Complete Main
Default : No
Forced : No
Audio #4
ID : 5
Format : AAC LC SBR
Format/Info : Advanced Audio Codec Low Complexity with Spectral Band Replication
Commercial name : HE-AAC
Format settings : Explicit
Codec ID : A_AAC-2
Duration : 3 h 1 min
Bit rate : 297 kb/s
Channel(s) : 8 channels
Channel layout : C L R Ls Rs Lb Rb LFE
Sampling rate : 48.0 kHz
Frame rate : 23.438 FPS (2048 SPF)
Compression mode : Lossy
Delay relative to video : 31 ms
Stream size : 386 MiB (8%)
Language : English
Default : No
Forced : No
Text #1
ID : 6
Format : UTF-8
Codec ID : S_TEXT/UTF8
Codec ID/Info : UTF-8 Plain Text
Duration : 2 h 48 min
Bit rate : 49 b/s
Count of elements : 2330
Stream size : 61.1 KiB (0%)
Language : English
Default : Yes
Forced : No
Text #2
ID : 7
Format : UTF-8
Codec ID : S_TEXT/UTF8
Codec ID/Info : UTF-8 Plain Text
Duration : 3 h 0 min
Bit rate : 51 b/s
Count of elements : 2630
Stream size : 68.3 KiB (0%)
Title : SDH
Language : English
Default : No
Forced : No

.torrent yuklash

Yuqori tezlikda va bepul ko‘chirish!

Qanday yuklab olinadi? · Torrent nima o‘zi? · Reyting va cheklovlar

Profil ShX
Forum Mavzu Muallif Hajm
Sifatsiz filmlar (CAMRip, TS, DVDScr) Qasoskorlar 3: Tugallanmagan Urush / Мстители 3: Война бесконечности / Avengers 3: Infinity War (Antoni Russo, Jou Russo) [2018, Fantastika, Jangari, Sarguzasht, TeleCine 1080p, Р] Soft-Release 4,53 GB
Sifatsiz filmlar (CAMRip, TS, DVDScr) Qasoskorlar 3: Tugallanmagan Urush / Мстители 3: Война бесконечности / Avengers 3: Infinity War (Antoni Russo, Jou Russo) [2018, Fantastika, Jangari, Sarguzasht, TeleSynch, P] Soft-Release 1,37 GB
Kinofilm Materiallari Qasoskorlar 3: Tugallanmagan Urush | Мстители 3 Война Бесконечности | Avengers: Infinity War (Entoni Russo, Jou Russo) [2018, Fantasika, Hayoliy, Kuchlanish, Sarguzasht WEBRip 1080p Dub] Treyler Soft-Release 52 MB
2012-2018 yil kinofilmlari Qasoskorlar II | Мстители: Эра Альтрона | Avengers: Age of Ultron (Joss Whedon) [2015, AQSH, Fantastika, jangari, triller, sarguzasht, TVRip] Dub MY5 Vampire_1987 706 MB
HEVC Kinofilmlar Qasoskorlar Intiho / Мстители: Финал / Avengers: Endgame (Entoni Russo, Jo Russo / Энтони Руссо, Джо Руссо / Anthony Russo, Joe Russo) [2019, Fantastika, Fentezi, Jangari, Sarguzasht, BDRip 1080p... Soft-Release 3,62 GB
HEVC Kinofilmlar Qasoskorlar Intiho / Мстители: Финал / Avengers: Endgame (Entoni Russo, Jo Russo / Энтони Руссо, Джо Руссо / Anthony Russo, Joe Russo) [2019, Fantastika, Fentezi, Jangari, Sarguzasht, BDRip 720p HEVC... Soft-Release 2,24 GB
HEVC Kinofilmlar Qasoskorlar Intiho / Мстители: Финал / Avengers: Endgame (Entoni Russo, Jo Russo / Энтони Руссо, Джо Руссо / Anthony Russo, Joe Russo) [2019, Fantastika, Fentezi, Jangari, Sarguzasht, WEB-DL 1080p... Soft-Release 2,94 GB
HEVC Kinofilmlar Qasoskorlar Intiho / Мстители: Финал / Avengers: Endgame (Entoni Russo, Jo Russo / Энтони Руссо, Джо Руссо / Anthony Russo, Joe Russo) [2019, Fantastika, Fentezi, Jangari, Sarguzasht, WEB-DL 2160p... Soft-Release 4,06 GB
Xabarlarni ko‘rsatish:    

Hozirgi vaqt: 15-Okt 18:19

Vaqtlar farqi: UTC + 5



Siz mavzu yaratishingiz mumkin emas
Siz xabarlarga javob qaytarishingiz mumkin emas
Siz o‘z xabarlaringizni tahrirlashingiz mumkin emas
Siz o‘z xabarlaringizni o‘chirishingiz mumkin emas
Siz so‘rovlarda ovoz berishingiz mumkin emas
Siz xabalarga fayllarni biriktirishingiz mumkin emas
Siz fayllarni ko‘chirishingiz mumkin emas