˂
˃
Tarqatmalar statistikasi
Ko‘chiraman: [ 2 ]
Ko‘chirmoqdaman: [ 3 ]
Ko‘chirib bo‘ldim: [ 15 ]
 
     
 
 

N.U.R.I.K.B.E.K ®

Jins:
Yigit
Staj:
1 yil 11 oy
Xabarlar:
537

Qayerdan: Jizzax. Paxtakor

Taqiq:

-Qasoskorlar Intiho
Мстители: Финал
Avengers: Endgame

--Chiqqan yili: 2019
Davlat: AQSH.
Janr: Fantastik, Hayoliy, Jangari, Sarguzasht.
Davomiyligi: 03:01:11
Tarjima: Yoshlar O'zbek Tilida--Rejissyor: Entoni Russo, Jo Russo.--Rollarda: Bree Larson, Linda Kardellini, Skarlett Yoxansson, Karen Gillan, Tessa Tompson, Robert Dauni Jr., Kris Xemsworth, Kris Evans, Evangelin Lilli, Xeyli Atvell.--Tavsif: Qasoskorlar jamoasi va ularning ittifoqchilari tirik qolganlar kuchli titan Thanosning halokatli harakatlariga qarshi turishga yordam beradigan yangi rejani ishlab chiqishlari kerak. Tarixdagi eng katta va fojiali jangdan so'ng ular xato qila olmaydilar.--Videoning sifati: BrRip x265.HEVC
Video format: MKV--Video: HVC1 1920x808 23.976 fps 1 361 kb/s
Audio: MP3 48000Hz stereo 128kbps O'zbek Tili--

Media Info

General
Format : Matroska
Format version : Version 4 / Version 2
File size : 1.89 GiB
Duration : 3 h 1 min
Overall bit rate : 1 491 kb/s
Movie name : PSArips.com | Avengers.Endgame.2019.1080p.BrRip.6CH.x265.HEVC-PSA
Encoded date : UTC 2019-08-11 14:03:00
Writing application : mkvmerge v15.0.0 ('Duel with the Devil') 64-bit
Writing library : libebml v1.3.5 + libmatroska v1.4.5
Video
ID : 1
Format : HEVC
Format/Info : High Efficiency Video Coding
Format profile : Main@L4@Main
Codec ID : V_MPEGH/ISO/HEVC
Duration : 3 h 1 min
Bit rate : 1 361 kb/s
Width : 1 920 pixels
Height : 808 pixels
Display aspect ratio : 2.40:1
Frame rate mode : Constant
Frame rate : 23.976 (24000/1001) FPS
Color space : YUV
Chroma subsampling : 4:2:0
Bit depth : 8 bits
Bits/(Pixel*Frame) : 0.037
Stream size : 1.72 GiB (91%)
Default : Yes
Forced : No
Audio
ID : 2
Format : MPEG Audio
Format version : Version 1
Format profile : Layer 3
Mode : Joint stereo
Mode extension : MS Stereo
Codec ID : A_MPEG/L3
Codec ID/Hint : MP3
Duration : 3 h 1 min
Bit rate mode : Constant
Bit rate : 128 kb/s
Channel(s) : 2 channels
Sampling rate : 48.0 kHz
Frame rate : 41.667 FPS (1152 SPF)
Compression mode : Lossy
Stream size : 166 MiB (9%)
Title : O'zbek Tili
Writing library : LAME3.99.5
Language : Uzbek
Default : Yes
Forced : No

LAVHALAR
.torrent yuklash

Yuqori tezlikda va bepul ko‘chirish!

Qanday yuklab olinadi? · Torrent nima o‘zi? · Reyting va cheklovlar

Profil ShX

AxeL

Jins:
Yigit
Staj:
1 yil 6 oy
Xabarlar:
756

Qayerdan: Gronland, Norway

Taqiq:

Shu yoshlar telekanalining dublyajda qatnashadigan aktyor aktrisalari kammi deyman, 5-6 ta obrazga bitta odam turli xil ovoz ohangini o'zgartirgan holda ovoz berishadi(lekin yaqqol sezilib turadi). Lekin juda zo'r tarjima qilishadi, ovoz rejisserlari ham juda yahshi ishlashadi...

Mavzu yaratish 11-Avg-2019 21:54 (1 soat 41 daqiqa o‘tgach)

Iqitibos

Profil ShX

N.U.R.I.K.B.E.K ®

Jins:
Yigit
Staj:
1 yil 11 oy
Xabarlar:
537

Qayerdan: Jizzax. Paxtakor

Taqiq:

farrux1981 oxirgi ogohlantirish oxiri ban olas

Mavzu yaratish 11-Avg-2019 22:28 (33 daqiqa o‘tgach)

Iqitibos

Profil ShX

farrux1981

Jins:
Yigit
Staj:
4 oy 18 kun
Xabarlar:
37
Taqiq:

Tushunmadim. Qaysi aybim uchun. Rasmning menga nima aloqasi bor

Mavzu yaratish 11-Avg-2019 22:54 (26 daqiqa o‘tgach)

Iqitibos

Profil ShX

Spicger

Jins:
Yigit
Staj:
1 yil
Xabarlar:
67

Qayerdan: Chinoz

Taqiq:

8636farrux1981 oxirgi ogohlantirish oxiri ban olas
Shu foydalanuvchimiz bosganligi aniqmi shu tugmani xabar botdan keganku shunga so'radimda

Mavzu yaratish 11-Avg-2019 23:32 (37 daqiqa o‘tgach)

Iqitibos

Profil ShX

BestBoy

Jins:
Yigit
Staj:
2 yil
Xabarlar:
64
Taqiq:

Скорость дайте

Mavzu yaratish 13-Avg-2019 12:00 (1 kun 12 soat o‘tgach)

Iqitibos

Profil ShX
Forum Mavzu Muallif Hajm
Sifatsiz filmlar (CAMRip, TS, DVDScr) Qasoskorlar 3: Tugallanmagan Urush / Мстители 3: Война бесконечности / Avengers 3: Infinity War (Antoni Russo, Jou Russo) [2018, Fantastika, Jangari, Sarguzasht, TeleCine 1080p, Р] Soft-Release 4,53 GB
Sifatsiz filmlar (CAMRip, TS, DVDScr) Qasoskorlar 3: Tugallanmagan Urush / Мстители 3: Война бесконечности / Avengers 3: Infinity War (Antoni Russo, Jou Russo) [2018, Fantastika, Jangari, Sarguzasht, TeleSynch, P] Soft-Release 1,37 GB
Kinofilm Materiallari Qasoskorlar 3: Tugallanmagan Urush | Мстители 3 Война Бесконечности | Avengers: Infinity War (Entoni Russo, Jou Russo) [2018, Fantasika, Hayoliy, Kuchlanish, Sarguzasht WEBRip 1080p Dub] Treyler Soft-Release 52 MB
2012-2018 yil kinofilmlari Qasoskorlar II | Мстители: Эра Альтрона | Avengers: Age of Ultron (Joss Whedon) [2015, AQSH, Fantastika, jangari, triller, sarguzasht, TVRip] Dub MY5 Vampire_1987 706 MB
HEVC Kinofilmlar Qasoskorlar Intiho / Мстители: Финал / Avengers: Endgame (Entoni Russo, Jo Russo / Энтони Руссо, Джо Руссо / Anthony Russo, Joe Russo) [2019, Fantastika, Fentezi, Jangari, Sarguzasht, BDRip 1080p... Soft-Release 3,62 GB
HEVC Kinofilmlar Qasoskorlar Intiho / Мстители: Финал / Avengers: Endgame (Entoni Russo, Jo Russo / Энтони Руссо, Джо Руссо / Anthony Russo, Joe Russo) [2019, Fantastika, Fentezi, Jangari, Sarguzasht, BDRip 2160p... Soft-Release 4,5 GB
HEVC Kinofilmlar Qasoskorlar Intiho / Мстители: Финал / Avengers: Endgame (Entoni Russo, Jo Russo / Энтони Руссо, Джо Руссо / Anthony Russo, Joe Russo) [2019, Fantastika, Fentezi, Jangari, Sarguzasht, BDRip 720p HEVC... Soft-Release 2,24 GB
HEVC Kinofilmlar Qasoskorlar Intiho / Мстители: Финал / Avengers: Endgame (Entoni Russo, Jo Russo / Энтони Руссо, Джо Руссо / Anthony Russo, Joe Russo) [2019, Fantastika, Fentezi, Jangari, Sarguzasht, WEB-DL 1080p... Soft-Release 2,94 GB
Xabarlarni ko‘rsatish:    

Hozirgi vaqt: 15-Okt 19:14

Vaqtlar farqi: UTC + 5



Siz mavzu yaratishingiz mumkin emas
Siz xabarlarga javob qaytarishingiz mumkin emas
Siz o‘z xabarlaringizni tahrirlashingiz mumkin emas
Siz o‘z xabarlaringizni o‘chirishingiz mumkin emas
Siz so‘rovlarda ovoz berishingiz mumkin emas
Siz xabalarga fayllarni biriktirishingiz mumkin emas
Siz fayllarni ko‘chirishingiz mumkin emas