˂
˃
Tarqatmalar statistikasi
Ko‘chiraman: [ 1 ]
Ko‘chirmoqdaman: [ 8 ]
Ko‘chirib bo‘ldim: [ 54 ]
 
     
 
 

AxeL ®

Jins:
Yigit
Staj:
1 yil 6 oy
Xabarlar:
756

Qayerdan: Gronland, Norway

Taqiq:

Alovuddin / Аладдин / Aladdin- Chiqqan yili: 2019
Davlat: AQSh
Janr: musiqa, fentezi, melodrama, komediya, sarguzasht, oilaviy
Davomiyligi: 02:07:58
Tarjima: Professional ko'p ovozli Milliy TV-Rejissyor: Gay Richchi
Rollarda: Mena Massud, Naomi Skot, Uill Smit, Marvan Kenzari, Navid Negaban, Nasim Pedrad, Billi Magnussen,...-Tavsif: Aladdin ismli yosh o'g'ri malika Yaseminga uylanish uchun shahzoda bo'lishni xohlaydi. Ayni paytda, Agrabaning vakili Jafar Agraba ustidan hokimiyatni qo'lga kiritmoqchi va buning uchun u mo''jizalar g'orida saqlanadigan sehrli chiroqni olishga intiladi, unga kirishga faqat “ochilmagan olmos” deb atalganga ruxsat beriladi va bu odam Aladdinning o'zi emas.-Sifat: Blu-Ray 720p
Format: MKV
Video: MPEG4 Video (H264) 1280x534 23.976fps 1 000 Kbps
Audio №1: AAC 48000Hz stereo 126 Kbps Ingliz tilida
Audio №2: MP3 44100Hz stereo 192kbps O'zbek tilida-

Media Info

General
Unique ID                      : 70539893843353602309160797881603277264 (0x35117D482EF2C743262361C30E8D41D0)
Complete name                  : D:\Films\Tarjima\HD Video\Aladdin.2019.Eng.Uzb.720p.BRRip.mkv
Format                         : Matroska
Format version                 : Version 4 / Version 2
File size                      : 1.18 GiB
Duration                       : 2h 7mn
Overall bit rate               : 1 321 Kbps
Encoded date                   : UTC 2019-08-10 09:29:44
Writing application            : mkvmerge v22.0.0 ('At The End Of The World') 64-bit
Writing library                : libebml v1.3.5 + libmatroska v1.4.8
Video
ID                             : 1
Format                         : AVC
Format/Info                    : Advanced Video Codec
Format profile                 : High@L4.1
Format settings, CABAC         : Yes
Format settings, ReFrames      : 4 frames
Codec ID                       : V_MPEG4/ISO/AVC
Duration                       : 2h 7mn
Bit rate                       : 1 000 Kbps
Width                          : 1 280 pixels
Height                         : 534 pixels
Display aspect ratio           : 2.40:1
Original display aspect ratio  : 2.40:1
Frame rate mode                : Constant
Frame rate                     : 23.976 (24000/1001) fps
Color space                    : YUV
Chroma subsampling             : 4:2:0
Bit depth                      : 8 bits
Scan type                      : Progressive
Bits/(Pixel*Frame)             : 0.061
Stream size                    : 915 MiB (76%)
Writing library                : x264 core 152
Encoding settings              : cabac=1 / ref=4 / deblock=1:-1:-1 / analyse=0x3:0x133 / me=umh / subme=9 / psy=1 / psy_rd=1.00:0.15 / mixed_ref=1 / me_range=24 / chroma_me=1 / trellis=2 / 8x8dct=1 / cqm=0 / deadzone=21,11 / fast_pskip=0 / chroma_qp_offset=-3 / threads=12 / lookahead_threads=1 / sliced_threads=0 / nr=0 / decimate=1 / interlaced=0 / bluray_compat=0 / constrained_intra=0 / bframes=3 / b_pyramid=2 / b_adapt=2 / b_bias=0 / direct=3 / weightb=1 / open_gop=0 / weightp=2 / keyint=250 / keyint_min=23 / scenecut=40 / intra_refresh=0 / rc_lookahead=60 / rc=2pass / mbtree=1 / bitrate=1000 / ratetol=1.0 / qcomp=0.60 / qpmin=0 / qpmax=69 / qpstep=4 / cplxblur=20.0 / qblur=0.5 / vbv_maxrate=31250 / vbv_bufsize=31250 / nal_hrd=none / filler=0 / ip_ratio=1.40 / aq=1:1.00
Default                        : Yes
Forced                         : No
Audio #1
ID                             : 2
Format                         : AAC
Format/Info                    : Advanced Audio Codec
Format profile                 : LC
Codec ID                       : A_AAC
Duration                       : 2h 7mn
Bit rate                       : 126 Kbps
Channel(s)                     : 2 channels
Channel positions              : Front: L R
Sampling rate                  : 48.0 KHz
Frame rate                     : 46.875 fps (1024 spf)
Compression mode               : Lossy
Delay relative to video        : -43ms
Stream size                    : 115 MiB (10%)
Title                          : Ingliz tilida
Language                       : English
Default                        : Yes
Forced                         : No
Audio #2
ID                             : 3
Format                         : MPEG Audio
Format version                 : Version 1
Format profile                 : Layer 3
Mode                           : Joint stereo
Mode extension                 : MS Stereo
Codec ID                       : A_MPEG/L3
Codec ID/Hint                  : MP3
Duration                       : 2h 7mn
Bit rate mode                  : Constant
Bit rate                       : 192 Kbps
Channel(s)                     : 2 channels
Sampling rate                  : 44.1 KHz
Frame rate                     : 38.281 fps (1152 spf)
Compression mode               : Lossy
Delay relative to video        : -43ms
Stream size                    : 176 MiB (15%)
Title                          : O'zbek tilida (AxeL)
Writing library                : LAME3.97
Language                       : Uzbek
Default                        : No
Forced                         : No
.torrent yuklash

Yuqori tezlikda va bepul ko‘chirish!

Qanday yuklab olinadi? · Torrent nima o‘zi? · Reyting va cheklovlar

Profil ShX

AxeL ®

Jins:
Yigit
Staj:
1 yil 6 oy
Xabarlar:
756

Qayerdan: Gronland, Norway

Taqiq:

Ba'zilarga mazaada, uxlab turib, trekerga kirishadida, yangi reliz chiqsa shartta ko'chirishadi, va yana uxlashadi, qaytib o'rnidan turishsa, reliz ko'chirib bo'lmagan, yana trekerga kirib e'tiroz bildirishadi, nimaga skors yo'q, skors berila... mehnat ula uchun bir tiyin, shu kungacha bitta odam (sal kam 3500 ta odamdan faqat bitta) trekerda hech mehnat qilmasada(hozirda bir qancha relizlar qilgan), mehnat qilganlarni qadrlab, rahmat tugmasini bosib, kamiga like ham bosib qo'yadi(ismini aytmayman, adashmasam Xorazmlik edi, gap egasini topadi). O'sha odamga rahmat aytgani, like bosgani uchun minnatdorchilik bildiraman, sizdaka userlarimiz bo'lganida, hozirda trekerimiz hech bo'lmaganda mytorrents trekeri darajasiga chiqqan bo'lardi. Bizni oramizda o'z saytiga ega bo'lganlar ko'pchilikni, juda ko'pchilikni tashkil qiladi. O'sha ba'zi mehnatkashlarning rizqini o'g'irlab, o'z virtual jamiyatini boqayotgan xaromxo'r adminlarga shunchaki kishini rahmi keladi. Biz o'z ahlimizni bir joyga to'plashga ko'p, juda juda ko'p harakat qildik(masalan, qanchadan qancha tanlovlar, RG guruhlarga qo'shilishga, RG dan foyda bo'lmagandan keyin birdaniga(hech qanday malakalarsiz) moderatorlikka qabul qilish...). Lekin umuman foydasi bo'lmadi. Nima demoqchiman, ovqat qilishni bilmaysanmi, hech bo'lmaganda senga ovqat berayotgan birodarlaringa rahmat aytishni o'rgan!

Mavzu yaratish 10-Avg-2019 17:48 (2 soat 57 daqiqa o‘tgach)

Iqitibos

Profil ShX

iJalol_Production

Jins:
Yigit
Staj:
1 yil 6 oy
Xabarlar:
75
Taqiq:

RELIZ uchun rahmat!
AxeL,

Mavzu yaratish 10-Avg-2019 19:56 (2 soat 7 daqiqa o‘tgach)

Iqitibos

Profil ShX

Soft-Release

Jins:
Yigit
Staj:
1 yil 7 oy
Xabarlar:
835

Qayerdan: Kattakurgan

Taqiq:

8625Ba'zilarga mazaada, uxlab turib, trekerga kirishadida, yangi reliz chiqsa shartta ko'chirishadi, va yana uxlashadi, qaytib o'rnidan turishsa, reliz ko'chirib bo'lmagan, yana trekerga kirib e'tiroz bildirishadi, nimaga skors yo'q, skors berila... mehnat ula uchun bir tiyin, shu kungacha bitta odam (sal kam 3500 ta odamdan faqat bitta) trekerda hech mehnat qilmasada(hozirda bir qancha relizlar qilgan), mehnat qilganlarni qadrlab, rahmat tugmasini bosib, kamiga like ham bosib qo'yadi(ismini aytmayman, adashmasam Xorazmlik edi, gap egasini topadi). O'sha odamga rahmat aytgani, like bosgani uchun minnatdorchilik bildiraman, sizdaka userlarimiz bo'lganida, hozirda trekerimiz hech bo'lmaganda mytorrents trekeri darajasiga chiqqan bo'lardi. Bizni oramizda o'z saytiga ega bo'lganlar ko'pchilikni, juda ko'pchilikni tashkil qiladi. O'sha ba'zi mehnatkashlarning rizqini o'g'irlab, o'z virtual jamiyatini boqayotgan xaromxo'r adminlarga shunchaki kishini rahmi keladi. Biz o'z ahlimizni bir joyga to'plashga ko'p, juda juda ko'p harakat qildik(masalan, qanchadan qancha tanlovlar, RG guruhlarga qo'shilishga, RG dan foyda bo'lmagandan keyin birdaniga(hech qanday malakalarsiz) moderatorlikka qabul qilish...). Lekin umuman foydasi bo'lmadi. Nima demoqchiman, ovqat qilishni bilmaysanmi, hech bo'lmaganda senga ovqat berayotgan birodarlaringa rahmat aytishni o'rgan!
AxeL, ay az

Mavzu yaratish 10-Avg-2019 20:47 (51 daqiqa o‘tgach)

Iqitibos

Profil ShX

Spicger

Jins:
Yigit
Staj:
1 yil
Xabarlar:
67

Qayerdan: Chinoz

Taqiq:

8625Ba'zilarga mazaada, uxlab turib, trekerga kirishadida, yangi reliz chiqsa shartta ko'chirishadi, va yana uxlashadi, qaytib o'rnidan turishsa, reliz ko'chirib bo'lmagan, yana trekerga kirib e'tiroz bildirishadi, nimaga skors yo'q, skors berila... mehnat ula uchun bir tiyin, shu kungacha bitta odam (sal kam 3500 ta odamdan faqat bitta) trekerda hech mehnat qilmasada(hozirda bir qancha relizlar qilgan), mehnat qilganlarni qadrlab, rahmat tugmasini bosib, kamiga like ham bosib qo'yadi(ismini aytmayman, adashmasam Xorazmlik edi, gap egasini topadi). O'sha odamga rahmat aytgani, like bosgani uchun minnatdorchilik bildiraman, sizdaka userlarimiz bo'lganida, hozirda trekerimiz hech bo'lmaganda mytorrents trekeri darajasiga chiqqan bo'lardi. Bizni oramizda o'z saytiga ega bo'lganlar ko'pchilikni, juda ko'pchilikni tashkil qiladi. O'sha ba'zi mehnatkashlarning rizqini o'g'irlab, o'z virtual jamiyatini boqayotgan xaromxo'r adminlarga shunchaki kishini rahmi keladi. Biz o'z ahlimizni bir joyga to'plashga ko'p, juda juda ko'p harakat qildik(masalan, qanchadan qancha tanlovlar, RG guruhlarga qo'shilishga, RG dan foyda bo'lmagandan keyin birdaniga(hech qanday malakalarsiz) moderatorlikka qabul qilish...). Lekin umuman foydasi bo'lmadi. Nima demoqchiman, ovqat qilishni bilmaysanmi, hech bo'lmaganda senga ovqat berayotgan birodarlaringa rahmat aytishni o'rgan!
To'g'ri aytasiz rahmat relizerlaga mehnatila uchun !!! ay ay ay

Mavzu yaratish 11-Avg-2019 01:17 (4 soat o‘tgach)

Iqitibos

Profil ShX
Xabarlarni ko‘rsatish:    

Hozirgi vaqt: 15-Okt 20:04

Vaqtlar farqi: UTC + 5



Siz mavzu yaratishingiz mumkin emas
Siz xabarlarga javob qaytarishingiz mumkin emas
Siz o‘z xabarlaringizni tahrirlashingiz mumkin emas
Siz o‘z xabarlaringizni o‘chirishingiz mumkin emas
Siz so‘rovlarda ovoz berishingiz mumkin emas
Siz xabalarga fayllarni biriktirishingiz mumkin emas
Siz fayllarni ko‘chirishingiz mumkin emas