˂
˃
Tarqatmalar statistikasi
Ko‘chirib bo‘ldim: [ 3 ]
 
     
 
 

Soft-Release ®

Jins:
Yigit
Staj:
1 yil 7 oy
Xabarlar:
835

Qayerdan: Kattakurgan

Taqiq:

Paxmoq Izquvar / Пушистый шпион / Marnie's World -Chiqqan Yili: 2018
Davlat: Germaniya, Belgiya
Janr: Multfilm, sarguzasht, oilaviy
Davomiyligi: 01:32:03
Tarjima: Professional (Ko'p Ovozli) [MY5]-Rejissyor: Kristof Leuenshteyn, Volfgang Leuenshteyn-Rollarda: Erik Borner, Aleksandra Neldel, Aksel Pral,...-Tavsif: Buzib ketgan qizil mushuk Marni xonim xonadonida iliqlik va xotirjamlikda yashaydi va mo'yloviga zarba bermaydi. Ammo uni qutiga boshqa shaharga yuborgan qaroqchi jinoyatchilar qurboniga aylanganda uning hayoti tubdan o'zgaradi. Yo'lda quti yo'qoladi va Marnie uzoq qishloqda, haqiqiy hayot bilan birma-bir. U It, Xo'roz va Eshak bilan uchrashadi, shundan keyin sarguzasht boshlanadi ... Marni va uning yangi do'stlari shaharda sirli talonchiliklar ortida turgan odamni topib, ushbu to'dani zararsizlantiradilar.- -Sifat: WEB-DL 1080p
Format: MKV
Video: AVC, 5071 Кb/s, 1920x1040
Audio №1: AC3, 384 Kb/s, 6 ch | RUS
Audio №2: MP3, 2 ch, 192 kb/s | UZB-

MediaInfo

General
Unique ID : 78871655021711006147255576645142462641 (0x3B5620D2D3C9FDC895D896A00FC640B1)
Complete name : Перевод Фильмы Узбекиский\Marnies.Welt.2019.WEB-DL.1080p.NuRKHoNoFF.UZTRACKER.mkv
Format : Matroska
Format version : Version 4
File size : 3.70 GiB
Duration : 1 h 32 min
Overall bit rate : 5 759 kb/s
Movie name : Marnies.Welt.2019.WEB-DL.1080p.NuRKHoNoFF.UZTRACKER
Encoded date : UTC 2019-08-09 20:42:02
Writing application : mkvmerge v34.0.0 ('Sight and Seen') 64-bit
Writing library : libebml v1.3.7 + libmatroska v1.5.0
Video
ID : 3
Format : AVC
Format/Info : Advanced Video Codec
Format profile : High@L4
Format settings : CABAC / 4 Ref Frames
Format settings, CABAC : Yes
Format settings, Reference : 4 frames
Codec ID : V_MPEG4/ISO/AVC
Duration : 1 h 32 min
Bit rate : 5 180 kb/s
Width : 1 920 pixels
Height : 1 040 pixels
Display aspect ratio : 1.85:1
Frame rate mode : Constant
Frame rate : 24.000 FPS
Color space : YUV
Chroma subsampling : 4:2:0
Bit depth : 8 bits
Scan type : Progressive
Bits/(Pixel*Frame) : 0.108
Stream size : 3.33 GiB (90%)
Language : English
Default : Yes
Forced : No
Color range : Limited
Color primaries : BT.709
Transfer characteristics : BT.709
Matrix coefficients : BT.709
Audio #1
ID : 1
Format : AC-3
Format/Info : Audio Coding 3
Commercial name : Dolby Digital
Codec ID : A_AC3
Duration : 1 h 32 min
Bit rate mode : Constant
Bit rate : 384 kb/s
Channel(s) : 6 channels
Channel layout : L R C LFE Ls Rs
Sampling rate : 48.0 kHz
Frame rate : 31.250 FPS (1536 SPF)
Bit depth : 16 bits
Compression mode : Lossy
Stream size : 253 MiB (7%)
Language : Russian
Service kind : Complete Main
Default : No
Forced : No
Audio #2
ID : 2
Format : MPEG Audio
Format version : Version 1
Format profile : Layer 3
Format settings : Joint stereo / MS Stereo
Codec ID : A_MPEG/L3
Codec ID/Hint : MP3
Duration : 1 h 32 min
Bit rate mode : Constant
Bit rate : 192 kb/s
Channel(s) : 2 channels
Sampling rate : 44.1 kHz
Frame rate : 38.281 FPS (1152 SPF)
Compression mode : Lossy
Stream size : 126 MiB (3%)
Title : Uzbek
Writing library : LAME3.97
Language : Uzbek
Default : Yes
Forced : No

.torrent yuklash

Yuqori tezlikda va bepul ko‘chirish!

Qanday yuklab olinadi? · Torrent nima o‘zi? · Reyting va cheklovlar

Profil ShX
Xabarlarni ko‘rsatish:    

Hozirgi vaqt: 15-Okt 18:18

Vaqtlar farqi: UTC + 5



Siz mavzu yaratishingiz mumkin emas
Siz xabarlarga javob qaytarishingiz mumkin emas
Siz o‘z xabarlaringizni tahrirlashingiz mumkin emas
Siz o‘z xabarlaringizni o‘chirishingiz mumkin emas
Siz so‘rovlarda ovoz berishingiz mumkin emas
Siz xabalarga fayllarni biriktirishingiz mumkin emas
Siz fayllarni ko‘chirishingiz mumkin emas