˂
˃
Tarqatmalar statistikasi
Ko‘chirmoqdaman: [ 3 ]
Ko‘chirib bo‘ldim: [ 14 ]
 
     
 
 

AxeL ®

Jins:
Yigit
Staj:
1 yil 8 oy
Xabarlar:
756

Qayerdan: Gronland, Norway

Taqiq:

Paxmoq Izquvar / Пушистый шпион / Marnie's World-
Chiqqan yili: 2018
Davlat: Germaniya, Belgiya
Janr: multfilm, sarguzasht, oilaviy
Davomiyligi: 01:32:04
Tarjima: Professional [Ko'p ovozli] MY5
-Rejissyor: Christoph Lauenstein, Wolfgang Lauenstein
Rollarda:
Erik Borner, Aleksandra Neldel, Aksel Pral,...-Tavsif: Buzib ketgan qizil mushuk Marni xonim xonadonida iliqlik va xotirjamlikda yashaydi va mo'yloviga zarba bermaydi. Ammo uni qutiga boshqa shaharga yuborgan qaroqchi jinoyatchilar qurboniga aylanganda uning hayoti tubdan o'zgaradi. Yo'lda quti yo'qoladi va Marnie uzoq qishloqda, haqiqiy hayot bilan birma-bir. U It, Xo'roz va Eshak bilan uchrashadi, shundan keyin sarguzasht boshlanadi ... Marni va uning yangi do'stlari shaharda sirli talonchiliklar ortida turgan odamni topib, ushbu to'dani zararsizlantiradilar.
-IMDb: 5.50
КиноПоиск: 5.761
-Sifat: WEB-DLRip
Format: MKV
Video: DivX 5 720x400 24fps 1 736 Kbps
Audio #1: Dolby AC3 48000Hz 6ch 384kbps Rus tilida
Audio #2: MP3 44100Hz stereo 192kbps O'zbek tilida

MediaInfo

General
Unique ID : 80055801927030139971101412338749741218 (0x3C3A2FC60588A4FF7C83AE551A3118A2)
Complete name : D:\Films\Multfilms\HD Video\Paxmoq.Izquvar.Uzb.2019.WEB-DLRip.mkv
Format : Matroska
Format version : Version 4 / Version 2
File size : 1.49 GiB
Duration : 1h 32mn
Overall bit rate : 2 314 Kbps
Encoded date : UTC 2019-08-07 06:47:49
Writing application : mkvmerge v22.0.0 ('At The End Of The World') 64-bit
Writing library : libebml v1.3.5 + libmatroska v1.4.8
Video
ID : 1
Format : MPEG-4 Visual
Format profile : Advanced Simple@L5
Format settings, BVOP : 1
Format settings, QPel : No
Format settings, GMC : No warppoints
Format settings, Matrix : Default (MPEG)
Codec ID : V_MS/VFW/FOURCC / DX50
Codec ID/Hint : DivX 5
Duration : 1h 32mn
Bit rate : 1 736 Kbps
Width : 720 pixels
Height : 400 pixels
Display aspect ratio : 16:9
Frame rate mode : Constant
Frame rate : 24.000 fps
Color space : YUV
Chroma subsampling : 4:2:0
Bit depth : 8 bits
Scan type : Progressive
Compression mode : Lossy
Bits/(Pixel*Frame) : 0.251
Stream size : 1.12 GiB (75%)
Writing library : XviD 1.2.1 (UTC 2008-12-04)
Default : Yes
Forced : No
Audio #1
ID : 2
Format : AC-3
Format/Info : Audio Coding 3
Mode extension : CM (complete main)
Format settings, Endianness : Big
Codec ID : A_AC3
Duration : 1h 32mn
Bit rate mode : Constant
Bit rate : 384 Kbps
Channel(s) : 6 channels
Channel positions : Front: L C R, Side: L R, LFE
Sampling rate : 48.0 KHz
Frame rate : 31.250 fps (1536 spf)
Compression mode : Lossy
Stream size : 253 MiB (17%)
Title : Rus tilida
Language : Russian
Default : Yes
Forced : No
Audio #2
ID : 3
Format : MPEG Audio
Format version : Version 1
Format profile : Layer 3
Mode : Joint stereo
Mode extension : MS Stereo
Codec ID : A_MPEG/L3
Codec ID/Hint : MP3
Duration : 1h 32mn
Bit rate mode : Constant
Bit rate : 192 Kbps
Channel(s) : 2 channels
Sampling rate : 44.1 KHz
Frame rate : 38.281 fps (1152 spf)
Compression mode : Lossy
Stream size : 126 MiB (8%)
Title : O'zbek tilida (AxeL)
Writing library : LAME3.97
Language : Uzbek
Default : No
Forced : No
.torrent yuklash

Yuqori tezlikda va bepul ko‘chirish!

Qanday yuklab olinadi? · Torrent nima o‘zi? · Reyting va cheklovlar

Profil ShX

muhammaddiyor104

Jins:
Ko‘rsatilmagan
Staj:
1 yil 8 oy
Xabarlar:
22
Taqiq:

chotkiy multik

Mavzu yaratish 08-Avg-2019 20:08 (5 soat o‘tgach)

Iqitibos

Profil ShX

muhammaddiyor104

Jins:
Ko‘rsatilmagan
Staj:
1 yil 8 oy
Xabarlar:
22
Taqiq:

skorost berila iltimos

Mavzu yaratish 09-Avg-2019 09:55 (13 soat o‘tgach)

Iqitibos

Profil ShX

Soft-Release

Jins:
Yigit
Staj:
1 yil 8 oy
Xabarlar:
845

Qayerdan: Kattakurgan

Taqiq:

8618skorost berila iltimos
muhammaddiyor104, Bemalol Yuklab Olaveringlar Man Tarqatib Beraman Tarqatishdaman!
Hohlasanglar Bu Yerdan Yuklashingiz Mumkin!
Paxmoq Izquvar / Пушистый шпион / Marnie's World (Kristof Leuenshteyn, Volfgang Leuenshteyn) [2018, Multfilm, sarguzasht, oilaviy, WEB-DL 1080p] iTunes
Paxmoq Izquvar / Пушистый шпион / Marnie's World (Kristof Leuenshteyn, Volfgang Leuenshteyn) [2018, Multfilm, sarguzasht, oilaviy, WEB-DLRip 720p] iTunes

Mavzu yaratish 10-Avg-2019 07:23 (21 soat o‘tgach)

Iqitibos

Profil ShX

Shoxa

Jins:
Ko‘rsatilmagan
Staj:
4 oy 13 kun
Xabarlar:
1
Taqiq:

Reklama yoqmi?

Mavzu yaratish 12-Avg-2019 15:56 (2 kun 8 soat o‘tgach)

Iqitibos

Profil ShX

Soft-Release

Jins:
Yigit
Staj:
1 yil 8 oy
Xabarlar:
845

Qayerdan: Kattakurgan

Taqiq:

8639Reklama yoqmi?
Shoxa, Yoq!

Mavzu yaratish 12-Avg-2019 19:18 (3 soat o‘tgach)

Iqitibos

Profil ShX
Xabarlarni ko‘rsatish:    

Hozirgi vaqt: 10-Dek 18:12

Vaqtlar farqi: UTC + 5



Siz mavzu yaratishingiz mumkin emas
Siz xabarlarga javob qaytarishingiz mumkin emas
Siz o‘z xabarlaringizni tahrirlashingiz mumkin emas
Siz o‘z xabarlaringizni o‘chirishingiz mumkin emas
Siz so‘rovlarda ovoz berishingiz mumkin emas
Siz xabalarga fayllarni biriktirishingiz mumkin emas
Siz fayllarni ko‘chirishingiz mumkin emas