˂
˃
Tarqatmalar statistikasi
Ko‘chirmoqdaman: [ 4 ]
Ko‘chirib bo‘ldim: [ 22 ]
 
     
 
 

Soft-Release ®

Jins:
Yigit
Staj:
1 yil 7 oy
Xabarlar:
835

Qayerdan: Kattakurgan

Taqiq:

Qasoskorlar Intiho / Мстители: Финал / Avengers: Endgame -Chiqqan Yili: 2019
Davlat: AQSH
Janr: Fantastika, Fentezi, Jangari, Sarguzasht
Davomiyligi: 03:01:09
Tarjima: Dublyaj Qilingan [iTunes] + Professional (Ko'p Ovozli) [MY5] + [Original]-Subtitrlar: Inglizcha (SDH)-Rejissyor: Entoni Russo, Jo Russo-Rollarda: Bri Larson, Linda Kardellini, Skarlett Yoxanson, Karen Gillan, Tessa Tompson, Robert Deuni ml, Kris Hemsvort, Kris Evans, Evandjilin Lelli, Heyli Etvell, Mark Rufallo, Jeremi Renner, Don Chidl, Pol Red-Tavsif: Qasoskorlar jamoasining omon qolgan a'zolari va ularning ittifoqchilari kuchli titan Tanosning vayronagarchilik harakatlariga qarshi turishga yordam beradigan yangi reja ishlab chiqishi kerak. Tarixdagi eng keng miqyosli va fojiali janglardan keyin ular xato qila olmaydilar.- -Sifat: WEB-DL 1080p HEVC 10bit
Format: MKV
Video: HEVC, 1602 kb/s, 1920x808
Audio №1: AC3, 6 ch, 384 kb/s | RUS
Audio №2: AAC, 6 ch, 208 kb/s | ENG
Audio №3: MP3, 2 ch, 128 kb/s | UZB-

MediaInfo

General
Unique ID : 334210171781587527973620670985108493161 (0xFB6E89AA54C22D0A5F88735E2B3C9369)
Complete name : Перевод Фильмы Узбекиский\Avengers.Endgame.2019.1080p.10bit.WEB-DL.6CH.x265.HEVC.UZTRACKER.ME.mkv
Format : Matroska
Format version : Version 4
File size : 2.94 GiB
Duration : 3 h 1 min
Overall bit rate : 2 317 kb/s
Movie name : Avengers.Endgame.2019.1080p.10bit.WEB-DL.6CH.x265.HEVC.UZTRACKER.ME
Encoded date : UTC 2019-08-04 19:07:11
Writing application : mkvmerge v34.0.0 ('Sight and Seen') 64-bit
Writing library : libebml v1.3.7 + libmatroska v1.5.0
Video
ID : 1
Format : HEVC
Format/Info : High Efficiency Video Coding
Format profile : Main 10@L4@Main
Codec ID : V_MPEGH/ISO/HEVC
Duration : 3 h 1 min
Bit rate : 1 602 kb/s
Width : 1 920 pixels
Height : 800 pixels
Display aspect ratio : 2.40:1
Frame rate mode : Constant
Frame rate : 23.976 (24000/1001) FPS
Color space : YUV
Chroma subsampling : 4:2:0
Bit depth : 10 bits
Bits/(Pixel*Frame) : 0.043
Stream size : 2.03 GiB (69%)
Default : Yes
Forced : No
Audio #1
ID : 2
Format : MPEG Audio
Format version : Version 1
Format profile : Layer 3
Format settings : Joint stereo / MS Stereo
Codec ID : A_MPEG/L3
Codec ID/Hint : MP3
Duration : 3 h 1 min
Bit rate mode : Constant
Bit rate : 128 kb/s
Channel(s) : 2 channels
Sampling rate : 48.0 kHz
Frame rate : 41.667 FPS (1152 SPF)
Compression mode : Lossy
Stream size : 166 MiB (6%)
Writing library : LAME3.99.5
Language : Uzbek
Default : Yes
Forced : No
Audio #2
ID : 3
Format : AC-3
Format/Info : Audio Coding 3
Commercial name : Dolby Digital
Codec ID : A_AC3
Duration : 3 h 1 min
Bit rate mode : Constant
Bit rate : 384 kb/s
Channel(s) : 6 channels
Channel layout : L R C LFE Ls Rs
Sampling rate : 48.0 kHz
Frame rate : 31.250 FPS (1536 SPF)
Bit depth : 16 bits
Compression mode : Lossy
Stream size : 498 MiB (17%)
Title : iTunes
Language : Russian
Service kind : Complete Main
Default : No
Forced : No
Audio #3
ID : 4
Format : AAC LC SBR
Format/Info : Advanced Audio Codec Low Complexity with Spectral Band Replication
Commercial name : HE-AAC
Format settings : Explicit
Codec ID : A_AAC-2
Duration : 3 h 1 min
Bit rate : 208 kb/s
Channel(s) : 6 channels
Channel layout : C L R Ls Rs LFE
Sampling rate : 48.0 kHz
Frame rate : 23.438 FPS (2048 SPF)
Compression mode : Lossy
Delay relative to video : 23 ms
Stream size : 271 MiB (9%)
Language : English
Default : No
Forced : No
Text #1
ID : 5
Format : UTF-8
Codec ID : S_TEXT/UTF8
Codec ID/Info : UTF-8 Plain Text
Duration : 2 h 48 min
Bit rate : 50 b/s
Count of elements : 2340
Stream size : 61.7 KiB (0%)
Language : English
Default : Yes
Forced : No
Text #2
ID : 6
Format : UTF-8
Codec ID : S_TEXT/UTF8
Codec ID/Info : UTF-8 Plain Text
Duration : 3 h 0 min
Bit rate : 52 b/s
Count of elements : 2643
Stream size : 69.0 KiB (0%)
Title : SDH
Language : English
Default : No
Forced : No

.torrent yuklash

Yuqori tezlikda va bepul ko‘chirish!

Qanday yuklab olinadi? · Torrent nima o‘zi? · Reyting va cheklovlar



So‘ngi marta tahrirlandi: Soft-Release (2019-08-05 00:47), Jami tahrirlangan 1 marta
Profil ShX

Soft-Release ®

Jins:
Yigit
Staj:
1 yil 7 oy
Xabarlar:
835

Qayerdan: Kattakurgan

Taqiq:

Ushbu Reliz Zamonaviy x265 HEVC Kodek Formatda Tayyorlandi! Ajoyib HD Tiniq Sifatda HEVC 10bit Rang MKV Formatda Va Albatta Kichik Hajmda Yuklab Oling Tomosha Qiling Zavqlaning

Mavzu yaratish 05-Avg-2019 00:33 (18 soniya o‘tgach)

Iqitibos

Profil ShX

UmarShoh

Jins:
Yigit
Staj:
1 yil 7 oy
Xabarlar:
402
Taqiq:

Soft-Release, Salom manga shu filmdagi inglizcha orginal ovoz yo'lagini ozini reliz qilib bering ! aa

Mavzu yaratish 06-Avg-2019 12:02 (1 kun 11 soat o‘tgach)

Iqitibos

Profil ShX

Dark GHOST

Jins:
Ko‘rsatilmagan
Staj:
1 yil 10 oy
Xabarlar:
53

Qayerdan: Mountain View

Taqiq:

Zo`r!

Mavzu yaratish 11-Avg-2019 21:19 (5 kun o‘tgach)

Iqitibos

Profil ShX

farrux1981

Jins:
Yigit
Staj:
4 oy 18 kun
Xabarlar:
37
Taqiq:

Oldin ham shu kino reliz qilinmaganmi

Mavzu yaratish 11-Avg-2019 21:30 (11 daqiqa o‘tgach)

Iqitibos

Profil ShX
Forum Mavzu Muallif Hajm
Sifatsiz filmlar (CAMRip, TS, DVDScr) Qasoskorlar 3: Tugallanmagan Urush / Мстители 3: Война бесконечности / Avengers 3: Infinity War (Antoni Russo, Jou Russo) [2018, Fantastika, Jangari, Sarguzasht, TeleCine 1080p, Р] Soft-Release 4,53 GB
Sifatsiz filmlar (CAMRip, TS, DVDScr) Qasoskorlar 3: Tugallanmagan Urush / Мстители 3: Война бесконечности / Avengers 3: Infinity War (Antoni Russo, Jou Russo) [2018, Fantastika, Jangari, Sarguzasht, TeleSynch, P] Soft-Release 1,37 GB
Kinofilm Materiallari Qasoskorlar 3: Tugallanmagan Urush | Мстители 3 Война Бесконечности | Avengers: Infinity War (Entoni Russo, Jou Russo) [2018, Fantasika, Hayoliy, Kuchlanish, Sarguzasht WEBRip 1080p Dub] Treyler Soft-Release 52 MB
2012-2018 yil kinofilmlari Qasoskorlar II | Мстители: Эра Альтрона | Avengers: Age of Ultron (Joss Whedon) [2015, AQSH, Fantastika, jangari, triller, sarguzasht, TVRip] Dub MY5 Vampire_1987 706 MB
HEVC Kinofilmlar Qasoskorlar Intiho / Мстители: Финал / Avengers: Endgame (Entoni Russo, Jo Russo / Энтони Руссо, Джо Руссо / Anthony Russo, Joe Russo) [2019, Fantastika, Fentezi, Jangari, Sarguzasht, BDRip 1080p... Soft-Release 3,62 GB
HEVC Kinofilmlar Qasoskorlar Intiho / Мстители: Финал / Avengers: Endgame (Entoni Russo, Jo Russo / Энтони Руссо, Джо Руссо / Anthony Russo, Joe Russo) [2019, Fantastika, Fentezi, Jangari, Sarguzasht, BDRip 2160p... Soft-Release 4,5 GB
HEVC Kinofilmlar Qasoskorlar Intiho / Мстители: Финал / Avengers: Endgame (Entoni Russo, Jo Russo / Энтони Руссо, Джо Руссо / Anthony Russo, Joe Russo) [2019, Fantastika, Fentezi, Jangari, Sarguzasht, BDRip 720p HEVC... Soft-Release 2,24 GB
HEVC Kinofilmlar Qasoskorlar Intiho / Мстители: Финал / Avengers: Endgame (Entoni Russo, Jo Russo / Энтони Руссо, Джо Руссо / Anthony Russo, Joe Russo) [2019, Fantastika, Fentezi, Jangari, Sarguzasht, WEB-DL 2160p... Soft-Release 4,06 GB
Xabarlarni ko‘rsatish:    

Hozirgi vaqt: 15-Okt 19:44

Vaqtlar farqi: UTC + 5



Siz mavzu yaratishingiz mumkin emas
Siz xabarlarga javob qaytarishingiz mumkin emas
Siz o‘z xabarlaringizni tahrirlashingiz mumkin emas
Siz o‘z xabarlaringizni o‘chirishingiz mumkin emas
Siz so‘rovlarda ovoz berishingiz mumkin emas
Siz xabalarga fayllarni biriktirishingiz mumkin emas
Siz fayllarni ko‘chirishingiz mumkin emas