˂
˃
Tarqatmalar statistikasi
Ko‘chiraman: [ 1 ]
Ko‘chirmoqdaman: [ 2 ]
Ko‘chirib bo‘ldim: [ 9 ]
 
     
 
 

Soft-Release ®

Jins:
Yigit
Staj:
1 yil 7 oy
Xabarlar:
838

Qayerdan: Kattakurgan

Taqiq:

Qasoskorlar Intiho / Мстители: Финал / Avengers: Endgame -Chiqqan Yili: 2019
Davlat: AQSH
Janr: Fantastika, Fentezi, Jangari, Sarguzasht
Davomiyligi: 03:01:09
Tarjima: Dublyaj Qilingan [iTunes] + Professional (Ko'p Ovozli) [MY5] + [Original]-Subtitrlar: Inglizcha (SDH)-Rejissyor: Entoni Russo, Jo Russo-Rollarda: Bri Larson, Linda Kardellini, Skarlett Yoxanson, Karen Gillan, Tessa Tompson, Robert Deuni ml, Kris Hemsvort, Kris Evans, Evandjilin Lelli, Heyli Etvell, Mark Rufallo, Jeremi Renner, Don Chidl, Pol Red-Tavsif: Qasoskorlar jamoasining omon qolgan a'zolari va ularning ittifoqchilari kuchli titan Tanosning vayronagarchilik harakatlariga qarshi turishga yordam beradigan yangi reja ishlab chiqishi kerak. Tarixdagi eng keng miqyosli va fojiali janglardan keyin ular xato qila olmaydilar.- -Sifat: WEB-DL 2160p HEVC 10bit
Format: MKV
Video: HEVC HDR, 2481 kb/s, 3840x1616
Audio №1: AC3, 6 ch, 384 kb/s | RUS
Audio №2: AAC, 6 ch, 208 kb/s | ENG
Audio №3: MP3, 2 ch, 128 kb/s | UZB-

MediaInfo

General
Unique ID : 240897810074159775034080527071373429234 (0xB53B3B08557267650897AA3D9CAC09F2)
Complete name : Перевод Фильмы Узбекиский\Avengers.Endgame.2019.2160p.10bit.HDR.WEB-DL.6CH.x265.HEVC.UZTRACKER.ME.mkv
Format : Matroska
Format version : Version 4
File size : 4.06 GiB
Duration : 3 h 1 min
Overall bit rate : 3 193 kb/s
Movie name : Avengers.Endgame.2019.2160p.10bit.HDR.WEB-DL.6CH.x265.HEVC.UZTRACKER.ME
Encoded date : UTC 2019-08-04 19:03:32
Writing application : mkvmerge v34.0.0 ('Sight and Seen') 64-bit
Writing library : libebml v1.3.7 + libmatroska v1.5.0
Video
ID : 1
Format : HEVC
Format/Info : High Efficiency Video Coding
Format profile : Main 10@L5@Main
HDR format : SMPTE ST 2086, HDR10 compatible
Codec ID : V_MPEGH/ISO/HEVC
Duration : 3 h 1 min
Bit rate : 2 481 kb/s
Width : 3 840 pixels
Height : 1 616 pixels
Display aspect ratio : 2.40:1
Frame rate mode : Constant
Frame rate : 23.976 (24000/1001) FPS
Color space : YUV
Chroma subsampling : 4:2:0
Bit depth : 10 bits
Bits/(Pixel*Frame) : 0.017
Stream size : 3.14 GiB (77%)
Default : Yes
Forced : No
Color range : Limited
Color primaries : BT.2020
Transfer characteristics : PQ
Matrix coefficients : BT.2020 non-constant
Mastering display color pri : BT.2020
Mastering display luminance : min: 0.0020 cd/m2, max: 4000 cd/m2
Maximum Content Light Level : 1011 cd/m2
Maximum Frame-Average Light : 592 cd/m2
Audio #1
ID : 2
Format : MPEG Audio
Format version : Version 1
Format profile : Layer 3
Format settings : Joint stereo / MS Stereo
Codec ID : A_MPEG/L3
Codec ID/Hint : MP3
Duration : 3 h 1 min
Bit rate mode : Constant
Bit rate : 128 kb/s
Channel(s) : 2 channels
Sampling rate : 48.0 kHz
Frame rate : 41.667 FPS (1152 SPF)
Compression mode : Lossy
Stream size : 166 MiB (4%)
Writing library : LAME3.99.5
Language : Uzbek
Default : Yes
Forced : No
Audio #2
ID : 3
Format : AC-3
Format/Info : Audio Coding 3
Commercial name : Dolby Digital
Codec ID : A_AC3
Duration : 3 h 1 min
Bit rate mode : Constant
Bit rate : 384 kb/s
Channel(s) : 6 channels
Channel layout : L R C LFE Ls Rs
Sampling rate : 48.0 kHz
Frame rate : 31.250 FPS (1536 SPF)
Bit depth : 16 bits
Compression mode : Lossy
Stream size : 498 MiB (12%)
Title : iTunes
Language : Russian
Service kind : Complete Main
Default : No
Forced : No
Audio #3
ID : 4
Format : AAC LC SBR
Format/Info : Advanced Audio Codec Low Complexity with Spectral Band Replication
Commercial name : HE-AAC
Format settings : Explicit
Codec ID : A_AAC-2
Duration : 3 h 1 min
Bit rate : 208 kb/s
Channel(s) : 6 channels
Channel layout : C L R Ls Rs LFE
Sampling rate : 48.0 kHz
Frame rate : 23.438 FPS (2048 SPF)
Compression mode : Lossy
Delay relative to video : 23 ms
Stream size : 271 MiB (7%)
Language : English
Default : No
Forced : No
Text #1
ID : 5
Format : UTF-8
Codec ID : S_TEXT/UTF8
Codec ID/Info : UTF-8 Plain Text
Duration : 2 h 48 min
Bit rate : 50 b/s
Count of elements : 2340
Stream size : 61.7 KiB (0%)
Language : English
Default : Yes
Forced : No
Text #2
ID : 6
Format : UTF-8
Codec ID : S_TEXT/UTF8
Codec ID/Info : UTF-8 Plain Text
Duration : 3 h 0 min
Bit rate : 52 b/s
Count of elements : 2643
Stream size : 69.0 KiB (0%)
Title : SDH
Language : English
Default : No
Forced : No

.torrent yuklash

Yuqori tezlikda va bepul ko‘chirish!

Qanday yuklab olinadi? · Torrent nima o‘zi? · Reyting va cheklovlar



So‘ngi marta tahrirlandi: Soft-Release (2019-08-05 00:46), Jami tahrirlangan 1 marta
Profil ShX

Soft-Release ®

Jins:
Yigit
Staj:
1 yil 7 oy
Xabarlar:
838

Qayerdan: Kattakurgan

Taqiq:

Ushbu Reliz Zamonaviy x265 HEVC Kodek Formatda Tayyorlandi! Ajoyib HD Tiniq Sifatda HEVC 10bit Rang MKV Formatda Va Albatta Kichik Hajmda Yuklab Oling Tomosha Qiling Zavqlaning!
Albatta Sizlar Uchun 4K Formatda! Tez Orada Blu-Ray 1080p 2160p HEVC 10bit 4K Sifatlisi Ham Joylanadi!

Mavzu yaratish 05-Avg-2019 00:33 (1 daqiqa o‘tgach)

Iqitibos

Profil ShX

UmarShoh

Jins:
Yigit
Staj:
1 yil 7 oy
Xabarlar:
403
Taqiq:

8590Ushbu Reliz Zamonaviy x265 HEVC Kodek Formatda Tayyorlandi! Ajoyib HD Tiniq Sifatda HEVC 10bit Rang MKV Formatda Va Albatta Kichik Hajmda Yuklab Oling Tomosha Qiling Zavqlaning!
Albatta Sizlar Uchun 4K Formatda! Tez Orada Blu-Ray 1080p 2160p HEVC 10bit 4K Sifatlisi Ham Joylanadi!
Blu-Ray 1080p HEVC 10bit bor edi psarips.comda shuni reliz qiling sifati ham zo'r chiqibti! aa ag

Mavzu yaratish 05-Avg-2019 04:39 (4 soat o‘tgach)

Iqitibos

Profil ShX

Soft-Release ®

Jins:
Yigit
Staj:
1 yil 7 oy
Xabarlar:
838

Qayerdan: Kattakurgan

Taqiq:

8593
8590Ushbu Reliz Zamonaviy x265 HEVC Kodek Formatda Tayyorlandi! Ajoyib HD Tiniq Sifatda HEVC 10bit Rang MKV Formatda Va Albatta Kichik Hajmda Yuklab Oling Tomosha Qiling Zavqlaning!
Albatta Sizlar Uchun 4K Formatda! Tez Orada Blu-Ray 1080p 2160p HEVC 10bit 4K Sifatlisi Ham Joylanadi!
Blu-Ray 1080p HEVC 10bit bor edi psarips.comda shuni reliz qiling sifati ham zo'r chiqibti! aa ag
UmarShoh, U Yerdan Yuklab Olib Bo'lsam Reliz Qilaman!

Mavzu yaratish 05-Avg-2019 05:44 (1 soat 5 daqiqa o‘tgach)

Iqitibos

Profil ShX
Forum Mavzu Muallif Hajm
Sifatsiz filmlar (CAMRip, TS, DVDScr) Qasoskorlar 3: Tugallanmagan Urush / Мстители 3: Война бесконечности / Avengers 3: Infinity War (Antoni Russo, Jou Russo) [2018, Fantastika, Jangari, Sarguzasht, TeleCine 1080p, Р] Soft-Release 4,53 GB
Sifatsiz filmlar (CAMRip, TS, DVDScr) Qasoskorlar 3: Tugallanmagan Urush / Мстители 3: Война бесконечности / Avengers 3: Infinity War (Antoni Russo, Jou Russo) [2018, Fantastika, Jangari, Sarguzasht, TeleSynch, P] Soft-Release 1,37 GB
Kinofilm Materiallari Qasoskorlar 3: Tugallanmagan Urush | Мстители 3 Война Бесконечности | Avengers: Infinity War (Entoni Russo, Jou Russo) [2018, Fantasika, Hayoliy, Kuchlanish, Sarguzasht WEBRip 1080p Dub] Treyler Soft-Release 52 MB
2012-2018 yil kinofilmlari Qasoskorlar II | Мстители: Эра Альтрона | Avengers: Age of Ultron (Joss Whedon) [2015, AQSH, Fantastika, jangari, triller, sarguzasht, TVRip] Dub MY5 Vampire_1987 706 MB
HEVC Kinofilmlar Qasoskorlar Intiho / Мстители: Финал / Avengers: Endgame (Entoni Russo, Jo Russo / Энтони Руссо, Джо Руссо / Anthony Russo, Joe Russo) [2019, Fantastika, Fentezi, Jangari, Sarguzasht, BDRip 1080p... Soft-Release 3,62 GB
HEVC Kinofilmlar Qasoskorlar Intiho / Мстители: Финал / Avengers: Endgame (Entoni Russo, Jo Russo / Энтони Руссо, Джо Руссо / Anthony Russo, Joe Russo) [2019, Fantastika, Fentezi, Jangari, Sarguzasht, BDRip 2160p... Soft-Release 4,5 GB
HEVC Kinofilmlar Qasoskorlar Intiho / Мстители: Финал / Avengers: Endgame (Entoni Russo, Jo Russo / Энтони Руссо, Джо Руссо / Anthony Russo, Joe Russo) [2019, Fantastika, Fentezi, Jangari, Sarguzasht, BDRip 720p HEVC... Soft-Release 2,24 GB
HEVC Kinofilmlar Qasoskorlar Intiho / Мстители: Финал / Avengers: Endgame (Entoni Russo, Jo Russo / Энтони Руссо, Джо Руссо / Anthony Russo, Joe Russo) [2019, Fantastika, Fentezi, Jangari, Sarguzasht, WEB-DL 1080p... Soft-Release 2,94 GB
Xabarlarni ko‘rsatish:    

Hozirgi vaqt: 22-Okt 08:20

Vaqtlar farqi: UTC + 5



Siz mavzu yaratishingiz mumkin emas
Siz xabarlarga javob qaytarishingiz mumkin emas
Siz o‘z xabarlaringizni tahrirlashingiz mumkin emas
Siz o‘z xabarlaringizni o‘chirishingiz mumkin emas
Siz so‘rovlarda ovoz berishingiz mumkin emas
Siz xabalarga fayllarni biriktirishingiz mumkin emas
Siz fayllarni ko‘chirishingiz mumkin emas