˂
˃
Tarqatmalar statistikasi
Ko‘chirmoqdaman: [ 5 ]
Ko‘chirib bo‘ldim: [ 43 ]
 
     
 
 

N.U.R.I.K.B.E.K ®

Jins:
Yigit
Staj:
1 yil 11 oy
Xabarlar:
537

Qayerdan: Jizzax. Paxtakor

Taqiq:

-Qora liboslilar: Xalqaro daraja | Люди в черном: Интернэшнл | Men in Black International
--Chiqqan yili: 2019
Davlat: Buyuk Britaniya, AQSH.
Janr: Fantastik, Jangari, Komediya Sarguzasht.
Davomiyligi: 01:54:57
Tarjima: MY5 O'zbek Tilida.--Rejissyor: F.Geri Grey.--Rollarda: Tessa Tompson, Chris Xemsvort, Kumale Nanjiani, Rebekka Ferguson( II), emma Tompson, Liam Neeson, Reif Spoll, Kaivan Novak, Spenser wilding, Marsi Harriel, Jess Radomska, Viktoriya Feyt, Anya Sovinski, Inni Clemons, Steven White, Jeff kim.--Tavsif: Qora odamlar, erning tinchligi va xavfsizligini himoya qiluvchi maxfiy tashkilot, bizni bir necha marta koinotdagi otishmalar hujumidan himoya qildi. Bu safar agentlarga qarshi turish kerak bo'lgan jahon hamjamiyati uchun eng katta xavf - ularning saflarida josuslik.--Videoning sifati: HDRip 720p
Video format: MKV--Video: HVC1 1280x720 23.976fps 904 kb/s
Audio: MP3 48000Hz stereo 128kbps O'zbek Tili
Subtitrlar: Kores Tilida--

Media Info

General
Format : Matroska
Format version : Version 4 / Version 2
File size : 850 MiB
Duration : 1 h 54 min
Overall bit rate : 1 033 kb/s
Movie name : PSArips.com | Men.in.Black.International.2019.720p.HC.HDRip.2CH.x265.HEVC-PSA
Encoded date : UTC 2019-08-03 13:15:33
Writing application : mkvmerge v15.0.0 ('Duel with the Devil') 64-bit
Writing library : libebml v1.3.5 + libmatroska v1.4.5
Video
ID : 1
Format : HEVC
Format/Info : High Efficiency Video Coding
Format profile : Main@L3.1@Main
Codec ID : V_MPEGH/ISO/HEVC
Duration : 1 h 54 min
Bit rate : 904 kb/s
Width : 1 280 pixels
Height : 720 pixels
Display aspect ratio : 16:9
Frame rate mode : Constant
Frame rate : 23.976 (24000/1001) FPS
Color space : YUV
Chroma subsampling : 4:2:0
Bit depth : 8 bits
Bits/(Pixel*Frame) : 0.041
Stream size : 743 MiB (87%)
Default : Yes
Forced : No
Audio
ID : 2
Format : MPEG Audio
Format version : Version 1
Format profile : Layer 3
Mode : Joint stereo
Mode extension : MS Stereo
Codec ID : A_MPEG/L3
Codec ID/Hint : MP3
Duration : 1 h 54 min
Bit rate mode : Constant
Bit rate : 128 kb/s
Channel(s) : 2 channels
Sampling rate : 48.0 kHz
Frame rate : 41.667 FPS (1152 SPF)
Compression mode : Lossy
Stream size : 105 MiB (12%)
Title : O'zbek Tili
Writing library : LAME3.99.5
Language : Uzbek
Default : Yes
Forced : No
LAVHALAR
.torrent yuklash

Yuqori tezlikda va bepul ko‘chirish!

Qanday yuklab olinadi? · Torrent nima o‘zi? · Reyting va cheklovlar

Profil ShX

UmarShoh

Jins:
Yigit
Staj:
1 yil 7 oy
Xabarlar:
402
Taqiq:

N.U.R.I.K.B.E.K, Gap yo'q aka aa ag

Mavzu yaratish 04-Avg-2019 22:47 (1 daqiqa o‘tgach)

Iqitibos

Profil ShX

UmarShoh

Jins:
Yigit
Staj:
1 yil 7 oy
Xabarlar:
402
Taqiq:

bu filmga MIB deb qo'yibti ai MIB - Majburiy Ijro Byurosimi ag (xazil)

Mavzu yaratish 04-Avg-2019 22:47 (45 soniya o‘tgach)

Iqitibos

Profil ShX

N.U.R.I.K.B.E.K ®

Jins:
Yigit
Staj:
1 yil 11 oy
Xabarlar:
537

Qayerdan: Jizzax. Paxtakor

Taqiq:

UmarShoh, aa

Mavzu yaratish 04-Avg-2019 22:48 (18 soniya o‘tgach)

Iqitibos

Profil ShX

AxeL

Jins:
Yigit
Staj:
1 yil 6 oy
Xabarlar:
756

Qayerdan: Gronland, Norway

Taqiq:

G'irt multfilm kino!

Mavzu yaratish 04-Avg-2019 23:09 (21 daqiqa o‘tgach)

Iqitibos

Profil ShX

N.U.R.I.K.B.E.K ®

Jins:
Yigit
Staj:
1 yil 11 oy
Xabarlar:
537

Qayerdan: Jizzax. Paxtakor

Taqiq:

AxeL, xozr qaysi kino multik emas, kattalar uchun multik ))

Mavzu yaratish 04-Avg-2019 23:17 (7 daqiqa o‘tgach)

Iqitibos

Profil ShX

Spicger

Jins:
Yigit
Staj:
1 yil
Xabarlar:
67

Qayerdan: Chinoz

Taqiq:

Nurikbek relizlariz uchun rahmat avvalosi lekin ilojisi bo'sa kesilgan joylari ruschada ketsa yaxshi bo'lardide tushunmi qovomman to'risi !!!

Mavzu yaratish 05-Avg-2019 22:05 (22 soat o‘tgach)

Iqitibos

Profil ShX

N.U.R.I.K.B.E.K ®

Jins:
Yigit
Staj:
1 yil 11 oy
Xabarlar:
537

Qayerdan: Jizzax. Paxtakor

Taqiq:

Spicger, ruscha tiniq ovozi yoʻq xali

Mavzu yaratish 05-Avg-2019 22:39 (34 daqiqa o‘tgach)

Iqitibos

Profil ShX

AxeL

Jins:
Yigit
Staj:
1 yil 6 oy
Xabarlar:
756

Qayerdan: Gronland, Norway

Taqiq:

N.U.R.I.K.B.E.K, bo'lmasa kesilgan joylariga ingliz tilida qo'yvoring

Mavzu yaratish 07-Avg-2019 20:49 (1 kun 22 soat o‘tgach)

Iqitibos

Profil ShX

N.U.R.I.K.B.E.K ®

Jins:
Yigit
Staj:
1 yil 11 oy
Xabarlar:
537

Qayerdan: Jizzax. Paxtakor

Taqiq:

AxeL, shunde qilingan

Mavzu yaratish 08-Avg-2019 00:10 (3 soat o‘tgach)

Iqitibos

Profil ShX
Xabarlarni ko‘rsatish:    

Hozirgi vaqt: 15-Okt 19:29

Vaqtlar farqi: UTC + 5



Siz mavzu yaratishingiz mumkin emas
Siz xabarlarga javob qaytarishingiz mumkin emas
Siz o‘z xabarlaringizni tahrirlashingiz mumkin emas
Siz o‘z xabarlaringizni o‘chirishingiz mumkin emas
Siz so‘rovlarda ovoz berishingiz mumkin emas
Siz xabalarga fayllarni biriktirishingiz mumkin emas
Siz fayllarni ko‘chirishingiz mumkin emas