˂
˃
Tarqatmalar statistikasi
Ko‘chirmoqdaman: [ 22 ]
 
     
 
 

UmarShoh ®

Jins:
Yigit
Staj:
1 yil 7 oy
Xabarlar:
402
Taqiq:

-Birinchi qasoskor: Qishki askar | Первый мститель: Другая война | Captain America: The Winter Soldier- Chiqqan yili: 2014
Davlat: AQSH
Janr: Fantastika, Jangari
Davomiyligi: 02:15:54
Tarjima: Professional (dublyaj qilingan)
Rejissyorlar: Entoni Russo, Jo Russo Rollarda: Крис Эванс, Скарлетт Йоханссон, Энтони Маки, Себастьян Стэн, Сэмюэл Л. Джексон, Роберт Редфорд, Фрэнк Грилло, Коби Смолдерс, Эмили ВанКэмп, Максимилиано Эрнандес.
Tavsif: После беспрецедентных событий, впервые собравших вместе команду Мстителей, Стив Роджерс, известный также как Капитан Америка, оседает в Вашингтоне и пытается приспособиться к жизни в современном мире. Но покой этому герою только снится — пытаясь помочь коллеге из агентства Щ. И. Т, Стив оказывается в центре событий, грозящих катастрофой мирового масштаба. Для того, чтобы разоблачить злодейский заговор, Капитан Америка объединяется с Черной вдовой. К ним также присоединяется новый соратник, известный как Сокол, однако никто из них даже не подозревает, на что способен новый враг. Videoning sifati: BDRip 1080p Hevc 10bit
Video format: MKV
Video: HEVC, 1920x800, 2130kbps, 23.976 fps
Audio : AAC-2, 48000Hz, 281 Kbps, 8ch |Inglizcha
Audio : MP3, 44100Hz, 128 Kbps, 2ch |O'zbekcha (My5)
Subtitrlar: Inglizcha

Media Info

General
Unique ID : 141744935153286807390579553431887037699 (0x6AA314DDB030F7915771D688A6B44503)
Complete name : D:\Media\Kinolar\07) Captain America The Winter Soldier [ 2014 BluRay 1080p x265 10 bit ] O'zbek tilida.mkv
Format : Matroska
Format version : Version 4
File size : 2.41 GiB
Duration : 2 h 15 min
Overall bit rate : 2 541 kb/s
Movie name : PSArips.com | Captain.America.The.Winter.Soldier.2014.1080p.10bit.BrRip.8CH.x265.HEVC-PSA
Encoded date : UTC 2019-07-20 08:46:57
Writing application : mkvmerge v33.1.0 ('Primrose') 64-bit
Writing library : libebml v1.3.7 + libmatroska v1.5.0
Video
ID : 1
Format : HEVC
Format/Info : High Efficiency Video Coding
Format profile : Main 10@L4@Main
Codec ID : V_MPEGH/ISO/HEVC
Duration : 2 h 15 min
Bit rate : 2 130 kb/s
Width : 1 920 pixels
Height : 800 pixels
Display aspect ratio : 2.40:1
Frame rate mode : Constant
Frame rate : 23.976 (24000/1001) FPS
Color space : YUV
Chroma subsampling : 4:2:0
Bit depth : 10 bits
Bits/(Pixel*Frame) : 0.058
Stream size : 2.02 GiB (84%)
Default : Yes
Forced : No
Audio #1
ID : 2
Format : AAC LC SBR
Format/Info : Advanced Audio Codec Low Complexity with Spectral Band Replication
Commercial name : HE-AAC
Format settings : Explicit
Codec ID : A_AAC-2
Duration : 2 h 15 min
Bit rate : 281 kb/s
Channel(s) : 8 channels
Channel layout : C L R Ls Rs Lb Rb LFE
Sampling rate : 48.0 kHz
Frame rate : 23.438 FPS (2048 SPF)
Compression mode : Lossy
Delay relative to video : 31 ms
Stream size : 273 MiB (11%)
Title : Orginal
Language : English
Default : Yes
Forced : No
Audio #2
ID : 4
Format : MPEG Audio
Format version : Version 1
Format profile : Layer 3
Format settings : Joint stereo / MS Stereo
Codec ID : A_MPEG/L3
Codec ID/Hint : MP3
Duration : 2 h 15 min
Bit rate mode : Constant
Bit rate : 128 kb/s
Channel(s) : 2 channels
Sampling rate : 44.1 kHz
Frame rate : 38.281 FPS (1152 SPF)
Compression mode : Lossy
Stream size : 124 MiB (5%)
Title : NTT (UmarShoh_FL)
Writing library : LAME3.99.5
Language : Uzbek
Default : No
Forced : No
Text
ID : 3
Format : UTF-8
Codec ID : S_TEXT/UTF8
Codec ID/Info : UTF-8 Plain Text
Duration : 2 h 9 min
Bit rate : 47 b/s
Count of elements : 1488
Stream size : 45.2 KiB (0%)
Language : English
Default : Yes
Forced : No
.torrent yuklash

Yuqori tezlikda va bepul ko‘chirish!

Qanday yuklab olinadi? · Torrent nima o‘zi? · Reyting va cheklovlar

Profil ShX

Spicger

Jins:
Yigit
Staj:
1 yil
Xabarlar:
67

Qayerdan: Chinoz

Taqiq:

Kinoni nomini qishki askar emas sovuq askar deb to'g'irlab qo'ying ozgina xatolik ketibdi

Mavzu yaratish 04-Avg-2019 18:44 (16 daqiqa o‘tgach)

Iqitibos

Profil ShX

UmarShoh ®

Jins:
Yigit
Staj:
1 yil 7 oy
Xabarlar:
402
Taqiq:

Birinchi Qasoskor 1,3 tayyor bo'ldi ag Xudo xoxlasa qolgan ikkitasini ham reliz qilaman aa

Mavzu yaratish 04-Avg-2019 22:50 (4 soat o‘tgach)

Iqitibos

Profil ShX

AxeL

Jins:
Yigit
Staj:
1 yil 7 oy
Xabarlar:
756

Qayerdan: Gronland, Norway

Taqiq:

8583Birinchi Qasoskor 1,3 tayyor bo'ldi ag Xudo xoxlasa qolgan ikkitasini ham reliz qilaman aa
Shoshilmang, marvelni kolleksiyasini tayyorlasangiz yahshi bo'lardi, hamma hursand bo'lardi

Mavzu yaratish 04-Avg-2019 23:13 (23 daqiqa o‘tgach)

Iqitibos

Profil ShX

Spicger

Jins:
Yigit
Staj:
1 yil
Xabarlar:
67

Qayerdan: Chinoz

Taqiq:

8586
8583Birinchi Qasoskor 1,3 tayyor bo'ldi ag Xudo xoxlasa qolgan ikkitasini ham reliz qilaman aa
Shoshilmang, marvelni kolleksiyasini tayyorlasangiz yahshi bo'lardi, hamma hursand bo'lardi
xa manam ko'chiraman bajonidir ishlarizga omad !!!

Mavzu yaratish 04-Avg-2019 23:29 (16 daqiqa o‘tgach)

Iqitibos

Profil ShX

UmarShoh ®

Jins:
Yigit
Staj:
1 yil 7 oy
Xabarlar:
402
Taqiq:

AxeL, axa unda biryo'la hammasini bitta qilib Reliz qilaman! aa

Mavzu yaratish 05-Avg-2019 04:44 (5 soat o‘tgach)

Iqitibos

Profil ShX

Soft-Release

Jins:
Yigit
Staj:
1 yil 7 oy
Xabarlar:
836

Qayerdan: Kattakurgan

Taqiq:

8594AxeL, axa unda biryo'la hammasini bitta qilib Reliz qilaman! aa
UmarShoh, aa Ha Endi Bitta Qilib Reliz Qilaman Deb Quyon Bo'lmangda Tarqatishdan Relizni Tarqatib Keting ag

Mavzu yaratish 08-Avg-2019 23:53 (3 kun o‘tgach)

Iqitibos

Profil ShX
Xabarlarni ko‘rsatish:    

Hozirgi vaqt: 18-Okt 03:31

Vaqtlar farqi: UTC + 5



Siz mavzu yaratishingiz mumkin emas
Siz xabarlarga javob qaytarishingiz mumkin emas
Siz o‘z xabarlaringizni tahrirlashingiz mumkin emas
Siz o‘z xabarlaringizni o‘chirishingiz mumkin emas
Siz so‘rovlarda ovoz berishingiz mumkin emas
Siz xabalarga fayllarni biriktirishingiz mumkin emas
Siz fayllarni ko‘chirishingiz mumkin emas