˂
˃
Tarqatmalar statistikasi
Ko‘chiraman: [ 1 ]
Ko‘chirmoqdaman: [ 4 ]
Ko‘chirib bo‘ldim: [ 5 ]
 
     
 
 

Soft-Release ®

Jins:
Yigit
Staj:
1 yil 7 oy
Xabarlar:
835

Qayerdan: Kattakurgan

Taqiq:

Uch Chegara | Тройная Граница | Triple Frontier -Chiqqan Yili: 2019
Davlat: AQSH
Janr: Jangari, Triller, Drama, Jinoyat, Sarguzasht
Davomiyligi: 02:05:52
Tarjima: Professional (Ko'p Ovozli) [MY5]-Rejissyor: Jey Si Chendor-Rollarda: Ben Afflek, Charli Xannem, Adria Arhona, Pedro Paskal, Oskar Ayzek, Garret Hedlund, Sheyla Vand, Reynaldo Galegos, Kristin Horn, Son MaBrayd.-Tavsif: Paragvay, Argentina va Braziliya o'rtasidagi chegara hududi uyushgan jinoyatchilik, giyohvand moddalar savdogarlari va terrorchilar uchun jannat hisoblanadi. Ko'p yillar davomida maxsus guruhlar mintaqani tozalashga harakat qildilar, ammo muvaffaqiyatsiz. Besh nafar operativ xodimlar o'z hamkasblari halok bo'lganini ko'rishdan charchagan va ishni o'z qo'llariga olishga qaror qilishdi. Ular mahalliy narkobaronni talon-taroj qilishni va ikkita qushni bitta tosh bilan o'ldirishni kutmoqdalar-katta moliyalashtirish kartelini mahrum qilish va qulay hayotni ta'minlash.- -Sifat: WEBRip 720p HEVC 10bit
Format: MKV
Video: HEVC, 1280x608, 24 fps, 952 kb/s
Audio №1: MP3, 2 ch, 128 kbps | O'zbek Tili
Audio №2: AC3, 6 ch, 384 kbps | Rus Tili
Audio №3: AAC-LC, 6 ch, 214 kbps | Ingliz Tili-

MediaInfo

General
Unique ID : 63308512532906497384911684507369387129 (0x2FA0C6A81416A04A23889FE0DD9AB479)
Complete name : Перевод Фильмы Узбекиский\Triple.Frontier.2019.720p.10bit.WEBRip.6CH.x265.HEVC.UZTRACKER.ME.mkv
Format : Matroska
Format version : Version 4
File size : 1.48 GiB
Duration : 2 h 5 min
Overall bit rate : 1 680 kb/s
Movie name : Triple.Frontier.2019.720p.10bit.WEBRip.6CH.x265.HEVC.UZTRACKER.ME
Encoded date : UTC 2019-07-05 19:20:21
Writing application : mkvmerge v34.0.0 ('Sight and Seen') 64-bit
Writing library : libebml v1.3.7 + libmatroska v1.5.0
Video
ID : 1
Format : HEVC
Format/Info : High Efficiency Video Coding
Format profile : Main 10@L3.1@Main
Codec ID : V_MPEGH/ISO/HEVC
Duration : 2 h 5 min
Bit rate : 952 kb/s
Width : 1 280 pixels
Height : 608 pixels
Display aspect ratio : 2.105
Frame rate mode : Constant
Frame rate : 24.000 FPS
Color space : YUV
Chroma subsampling : 4:2:0
Bit depth : 10 bits
Bits/(Pixel*Frame) : 0.051
Stream size : 857 MiB (57%)
Default : Yes
Forced : No
Audio #1
ID : 2
Format : MPEG Audio
Format version : Version 1
Format profile : Layer 3
Format settings : Joint stereo / MS Stereo
Codec ID : A_MPEG/L3
Codec ID/Hint : MP3
Duration : 2 h 5 min
Bit rate mode : Constant
Bit rate : 128 kb/s
Channel(s) : 2 channels
Sampling rate : 48.0 kHz
Frame rate : 41.667 FPS (1152 SPF)
Compression mode : Lossy
Stream size : 115 MiB (8%)
Title : O'zbek Tili
Language : Uzbek
Default : Yes
Forced : No
Audio #2
ID : 3
Format : AC-3
Format/Info : Audio Coding 3
Commercial name : Dolby Digital
Codec ID : A_AC3
Duration : 2 h 5 min
Bit rate mode : Constant
Bit rate : 384 kb/s
Channel(s) : 6 channels
Channel layout : L R C LFE Ls Rs
Sampling rate : 48.0 kHz
Frame rate : 31.250 FPS (1536 SPF)
Bit depth : 16 bits
Compression mode : Lossy
Stream size : 346 MiB (23%)
Language : Russian
Service kind : Complete Main
Default : No
Forced : No
Audio #3
ID : 4
Format : AAC LC SBR
Format/Info : Advanced Audio Codec Low Complexity with Spectral Band Replication
Commercial name : HE-AAC
Format settings : Explicit
Codec ID : A_AAC-2
Duration : 2 h 5 min
Bit rate : 214 kb/s
Channel(s) : 6 channels
Channel layout : C L R Ls Rs LFE
Sampling rate : 48.0 kHz
Frame rate : 23.438 FPS (2048 SPF)
Compression mode : Lossy
Delay relative to video : 23 ms
Stream size : 193 MiB (13%)
Language : English
Default : No
Forced : No

.torrent yuklash

Yuqori tezlikda va bepul ko‘chirish!

Qanday yuklab olinadi? · Torrent nima o‘zi? · Reyting va cheklovlar

Profil ShX
Xabarlarni ko‘rsatish:    

Hozirgi vaqt: 15-Okt 19:23

Vaqtlar farqi: UTC + 5



Siz mavzu yaratishingiz mumkin emas
Siz xabarlarga javob qaytarishingiz mumkin emas
Siz o‘z xabarlaringizni tahrirlashingiz mumkin emas
Siz o‘z xabarlaringizni o‘chirishingiz mumkin emas
Siz so‘rovlarda ovoz berishingiz mumkin emas
Siz xabalarga fayllarni biriktirishingiz mumkin emas
Siz fayllarni ko‘chirishingiz mumkin emas