˂
˃
Tarqatmalar statistikasi
Ko‘chirmoqdaman: [ 5 ]
Ko‘chirib bo‘ldim: [ 30 ]
 
     
 
 

Adham Saidumarov ®

Jins:
Yigit
Staj:
1 yil 8 oy
Xabarlar:
108

Qayerdan: Farg'ona viloyati

Taqiq:

YIRTQICH | ХИЩНИК | PREDATOR
Chiqqan yili: 1987
Davlat: AQSH
Janr: Hayoliy, Jangari, Sarguzasht
Davomiyligi: 01:46:35
Tarjima: Havaskor (dublyaj qilingan) UZB
Tarjima 2: Professional (dublyaj qilingan) RUS
Tarjima 3: Professional (dublyaj qilingan) ENG
Rejissyor: Djon MakTirnan
Rollarda: Arnol'd Shvarcenegger, Karl Uezers, Elpidiya Karrillo, Bill D'yuk, Djessi Ventura, Sonni Lendem, Richard Chavesс, R.G. Armstrong, Sheyn Blek, Kevin Xoll...
Tavsif: Janubiy Amerikada partizanlar tomonidan Amerika vertolyoti urib tushirildi. Omon qolgan ekipaj asirlikda. AQSh Markaziy razvedka boshqarmasi Amerika fuqarolarini ozod qilish uchun bor kuchlarini sarflamoqda. Datcham boshchiligidagi elita maxsus kuchlari guruhi Janubiy Amerikadagi o'rmonda qoldirildi.
---------------------------------------------------------------------------------------------------Qo'sh. ma'lumot:
----------------------------------------------------------------------------------------------------
Videoning sifati: BDRip-AVC
Video format: MKV
Video: H.264, 1024x552 23.976 fps, 2670 kb/s
Audio: MP3 48000Hz stereo 192kbps (O'zbek tili)
Audio 2: AC3, 48.0 kHz, 6 channels, 384 kb/s (Rus tili)
Audio 3: AC3, 48.0 kHz, 6 channels, 384 kb/s (Ingliz tili)

Media Info

General
Unique ID : 207889873714949599399389138565193555479 (0x9C66221F70DF93A0A90649B78D005E17)
Complete name : \\Ads\кино (e)\Torrent 2\Predator.1987.BDRip.mkv
Format : Matroska
Format version : Version 4 / Version 2
File size : 2.70 GiB
Duration : 1h 46mn
Overall bit rate : 3 626 Kbps
Encoded date : UTC 2019-07-19 03:15:00
Writing application : mkvmerge v9.9.0 ('Pick Up') 32bit
Writing library : libebml v1.3.4 + libmatroska v1.4.5
DURATION : 01:46:35.808000000
NUMBER_OF_FRAMES : 266492
NUMBER_OF_BYTES : 153499392
_STATISTICS_WRITING_APP : mkvmerge v9.9.0 ('Pick Up') 32bit
_STATISTICS_WRITING_DATE_UTC : 2019-07-19 03:15:00
_STATISTICS_TAGS : BPS DURATION NUMBER_OF_FRAMES NUMBER_OF_BYTES
Video
ID : 1
Format : AVC
Format/Info : Advanced Video Codec
Format profile : High@L4.1
Format settings, CABAC : Yes
Format settings, ReFrames : 11 frames
Codec ID : V_MPEG4/ISO/AVC
Duration : 1h 46mn
Bit rate : 2 670 Kbps
Width : 1 024 pixels
Height : 552 pixels
Display aspect ratio : 1.85:1
Frame rate mode : Constant
Frame rate : 23.976 fps
Color space : YUV
Chroma subsampling : 4:2:0
Bit depth : 8 bits
Scan type : Progressive
Bits/(Pixel*Frame) : 0.197
Stream size : 1.93 GiB (72%)
Writing library : x264 core 148 r2638 7599210
Encoding settings : cabac=1 / ref=11 / deblock=1:-3:-3 / analyse=0x3:0x113 / me=umh / subme=11 / psy=1 / psy_rd=1.00:0.00 / mixed_ref=1 / me_range=48 / chroma_me=1 / trellis=2 / 8x8dct=1 / cqm=0 / deadzone=21,11 / fast_pskip=0 / chroma_qp_offset=-2 / threads=9 / lookahead_threads=1 / sliced_threads=0 / nr=0 / decimate=0 / interlaced=0 / bluray_compat=0 / constrained_intra=0 / bframes=11 / b_pyramid=2 / b_adapt=0 / b_bias=0 / direct=3 / weightb=1 / open_gop=0 / weightp=2 / keyint=240 / keyint_min=24 / scenecut=40 / intra_refresh=0 / rc_lookahead=40 / rc=2pass / mbtree=0 / bitrate=2670 / ratetol=1.0 / qcomp=0.60 / qpmin=0 / qpmax=69 / qpstep=2 / cplxblur=20.0 / qblur=0.5 / vbv_maxrate=14000 / vbv_bufsize=14000 / nal_hrd=none / filler=0 / ip_ratio=1.40 / pb_ratio=1.30 / aq=1:1.00
Language : English
Default : Yes
Forced : No
DURATION : 01:46:35.358000000
NUMBER_OF_FRAMES : 153335
NUMBER_OF_BYTES : 2129771164
_STATISTICS_WRITING_APP : mkvmerge v9.9.0 ('Pick Up') 32bit
_STATISTICS_WRITING_DATE_UTC : 2019-07-19 03:15:00
_STATISTICS_TAGS : BPS DURATION NUMBER_OF_FRAMES NUMBER_OF_BYTES
Audio #1
ID : 2
Format : AC-3
Format/Info : Audio Coding 3
Mode extension : CM (complete main)
Format settings, Endianness : Big
Codec ID : A_AC3
Duration : 1h 46mn
Bit rate mode : Constant
Bit rate : 384 Kbps
Channel count : 6 channels
Channel positions : Front: L C R, Side: L R, LFE
Sampling rate : 48.0 KHz
Bit depth : 16 bits
Compression mode : Lossy
Stream size : 293 MiB (11%)
Default : Yes
Forced : No
Audio #2
ID : 3
Format : AC-3
Format/Info : Audio Coding 3
Mode extension : CM (complete main)
Format settings, Endianness : Big
Codec ID : A_AC3
Duration : 1h 46mn
Bit rate mode : Constant
Bit rate : 384 Kbps
Channel count : 6 channels
Channel positions : Front: L C R, Side: L R, LFE
Sampling rate : 48.0 KHz
Bit depth : 16 bits
Compression mode : Lossy
Stream size : 293 MiB (11%)
Default : No
Forced : No
Audio #3
ID : 6
Format : MPEG Audio
Format version : Version 1
Format profile : Layer 3
Mode : Joint stereo
Mode extension : MS Stereo
Codec ID : A_MPEG/L3
Codec ID/Hint : MP3
Duration : 1h 46mn
Bit rate mode : Constant
Bit rate : 192 Kbps
Channel count : 2 channels
Sampling rate : 48.0 KHz
Compression mode : Lossy
Stream size : 146 MiB (5%)
Title : UZB
Writing library : LAME3.99.5
Language : Uzbek
Default : No
Forced : No
Text #1
ID : 4
Format : UTF-8
Codec ID : S_TEXT/UTF8
Codec ID/Info : UTF-8 Plain Text
Default : Yes
Forced : No
Text #2
ID : 5
Format : UTF-8
Codec ID : S_TEXT/UTF8
Codec ID/Info : UTF-8 Plain Text
Default : No
Forced : No
LAVHALAR
.torrent yuklash

Yuqori tezlikda va bepul ko‘chirish!

Qanday yuklab olinadi? · Torrent nima o‘zi? · Reyting va cheklovlar

Profil ShX

AxeL

Jins:
Yigit
Staj:
1 yil 6 oy
Xabarlar:
756

Qayerdan: Gronland, Norway

Taqiq:

e qoyil, buni menimcha studiadagilar tarjima qilgan bo'lsa kerak, o'zbek telekanallari bunaqa filmlarni efirga uzatmasa kerak...kim yoki qaysi studio tarjima qilganini yozib qo'ysangiz maqsadga muvofiq bo'lardi, ishlarizga omad

Mavzu yaratish 26-Iyul-2019 18:03 (27 daqiqa o‘tgach)

Iqitibos

Profil ShX

Adham Saidumarov ®

Jins:
Yigit
Staj:
1 yil 8 oy
Xabarlar:
108

Qayerdan: Farg'ona viloyati

Taqiq:

8534e qoyil, buni menimcha studiadagilar tarjima qilgan bo'lsa kerak, o'zbek telekanallari bunaqa filmlarni efirga uzatmasa kerak...kim yoki qaysi studio tarjima qilganini yozib qo'ysangiz maqsadga muvofiq bo'lardi, ishlarizga omad
Qaysi studiya, va kim tarjima qilganini topa olmadim

Mavzu yaratish 26-Iyul-2019 18:25 (21 daqiqa o‘tgach)

Iqitibos

Profil ShX

N.U.R.I.K.B.E.K

Jins:
Yigit
Staj:
1 yil 11 oy
Xabarlar:
537

Qayerdan: Jizzax. Paxtakor

Taqiq:

8534e qoyil, buni menimcha studiadagilar tarjima qilgan bo'lsa kerak, o'zbek telekanallari bunaqa filmlarni efirga uzatmasa kerak...kim yoki qaysi studio tarjima qilganini yozib qo'ysangiz maqsadga muvofiq bo'lardi, ishlarizga omad
xozr televideniyadan xammanarsa kuta bo'ladi, ya legenda ni berganda bu xolva shekili

Mavzu yaratish 26-Iyul-2019 19:29 (1 soat 3 daqiqa o‘tgach)

Iqitibos

Profil ShX

AxeL

Jins:
Yigit
Staj:
1 yil 6 oy
Xabarlar:
756

Qayerdan: Gronland, Norway

Taqiq:

8535
8534e qoyil, buni menimcha studiadagilar tarjima qilgan bo'lsa kerak, o'zbek telekanallari bunaqa filmlarni efirga uzatmasa kerak...kim yoki qaysi studio tarjima qilganini yozib qo'ysangiz maqsadga muvofiq bo'lardi, ishlarizga omad
Qaysi studiya, va kim tarjima qilganini topa olmadim
kinoni boshida yoki oxirida aytib o'tadi adashmasam

Mavzu yaratish 26-Iyul-2019 19:36 (6 daqiqa o‘tgach)

Iqitibos

Profil ShX

AxeL

Jins:
Yigit
Staj:
1 yil 6 oy
Xabarlar:
756

Qayerdan: Gronland, Norway

Taqiq:

8536
8534e qoyil, buni menimcha studiadagilar tarjima qilgan bo'lsa kerak, o'zbek telekanallari bunaqa filmlarni efirga uzatmasa kerak...kim yoki qaysi studio tarjima qilganini yozib qo'ysangiz maqsadga muvofiq bo'lardi, ishlarizga omad
xozr televideniyadan xammanarsa kuta bo'ladi, ya legenda ni berganda bu xolva shekili
ya legenda adashmasam, Uil Smit o'ynagan kinomidi? u kinoda fandan qanaqadir notog'ri foydalanganlik natijasida kelib chiqmasmidi mahluqlar, a bu xishnikda esa beo'xshov mahluqni o'zginasiku)))

Mavzu yaratish 26-Iyul-2019 19:38 (2 daqiqa o‘tgach)

Iqitibos

Profil ShX

UmarShoh

Jins:
Yigit
Staj:
1 yil 7 oy
Xabarlar:
402
Taqiq:

AxeL, Ya legenda zo'r kino ! ag

Mavzu yaratish 27-Iyul-2019 12:35 (16 soat o‘tgach)

Iqitibos

Profil ShX

Daymos

Jins:
Yigit
Staj:
1 yil 5 oy
Xabarlar:
10

Qayerdan: Navoiy

Taqiq:

Adham Saidumarov, Ишизга гап йу, лекин лавхалари жуда таниш!))

Mavzu yaratish 27-Iyul-2019 17:13 (4 soat o‘tgach)

Iqitibos

Profil ShX
Xabarlarni ko‘rsatish:    

Hozirgi vaqt: 15-Okt 04:05

Vaqtlar farqi: UTC + 5



Siz mavzu yaratishingiz mumkin emas
Siz xabarlarga javob qaytarishingiz mumkin emas
Siz o‘z xabarlaringizni tahrirlashingiz mumkin emas
Siz o‘z xabarlaringizni o‘chirishingiz mumkin emas
Siz so‘rovlarda ovoz berishingiz mumkin emas
Siz xabalarga fayllarni biriktirishingiz mumkin emas
Siz fayllarni ko‘chirishingiz mumkin emas