˂
˃
 

Gr@nd ®

Jins:
Yigit
Staj:
2 yil
Xabarlar:
170

Qayerdan: Jizzax Forish

Taqiq:

Sirli Tovush | Зов волка | Le chant du loup- -Chiqqan yili: 2019
Davlat: Frantsiya
Janr: Jangari, Drama
Davomiyligi: 01:55:46
Tarjima: [MY5] telekanali dublyaji O'zbek tilida-Rejissyor: Antonin Baudry-Rollarda: Fransua Sivil, Omar Si, Matyo Kassovits, Rеda Katеb, Paula Bir, Alеksis Mixalik, Jan-Iv Bеrtеlo, Damiеn Bonnar, Pierre Cevaer, Sеbastеn Libеssar-Tavsif: Yosh dengiz osti kemalari eshitadigan har qanday ovozni tan olish uchun noyob sovg'aga ega. Odamlarning taqdiri "Oltin Quloq" ga bog'liq va xatolik dengiz osti kemasining butun ekipajining hayotiga putur etkazadi. Uning o'rtoqlari ishonchini qayta tiklashni istasa, u o'zining harbiy tekshiruvini olib boradi, natijada butun dunyo yadrosi apokalipsiya yonida. Jahon urushiga yo'l qo'ymaslik uchun suv osti dengizidagi elita jangovar guruhi imkonsiz qilishi kerak, chunki asosiy buyurtmani bekor qilish mumkin emas.-Videoning sifati: BDRip-AVC
Video format: MKV-Video: MPEG4 Video (H264) 1024x428 1 974 Kbps 23.976fps
Audio: AC3, 6 ch, 448 Kbps | RUS
Audio: MPEG Audio Layer 3 44100Hz stereo 128 Kb/s | UZB
-

Media Info

General
Unique ID : 230161441508356659704906390481245690252 (0xAD277B31862A4FCDA1015D421351D98C)
Format : Matroska
Format version : Version 4 / Version 2
File size : 2.06 GiB
Duration : 1h 55mn
Overall bit rate : 2 552 Kbps
Movie name : Xusan_Gr@nd
Encoded date : UTC 2019-07-11 16:33:56
Writing application : mkvmerge v6.8.0 ('Theme for Great Cities') 64bit built on Mar 2 2014 21:34:26
Writing library : libebml v1.3.0 + libmatroska v1.4.1
Video
ID : 1
Format : AVC
Format/Info : Advanced Video Codec
Format profile : High@L4.1
Format settings, CABAC : Yes
Format settings, ReFrames : 12 frames
Codec ID : V_MPEG4/ISO/AVC
Duration : 1h 55mn
Bit rate : 1 974 Kbps
Width : 1 024 pixels
Height : 428 pixels
Display aspect ratio : 2.40:1
Frame rate : 23.976 fps
Color space : YUV
Chroma subsampling : 4:2:0
Bit depth : 8 bits
Scan type : Progressive
Bits/(Pixel*Frame) : 0.188
Stream size : 1.56 GiB (75%)
Title : Enigma
Writing library : x264 core 152 r2851 ba24899
Encoding settings : cabac=1 / ref=12 / deblock=1:-2:-2 / analyse=0x3:0x113 / me=umh / subme=10 / psy=1 / psy_rd=1.02:0.05 / mixed_ref=1 / me_range=32 / chroma_me=1 / trellis=2 / 8x8dct=1 / cqm=0 / deadzone=21,11 / fast_pskip=0 / chroma_qp_offset=-3 / threads=12 / lookahead_threads=3 / sliced_threads=0 / nr=0 / decimate=0 / interlaced=0 / bluray_compat=0 / constrained_intra=0 / bframes=10 / b_pyramid=2 / b_adapt=2 / b_bias=0 / direct=3 / weightb=1 / open_gop=0 / weightp=2 / keyint=240 / keyint_min=23 / scenecut=40 / intra_refresh=0 / rc=2pass / mbtree=0 / bitrate=1974 / ratetol=1.0 / qcomp=0.60 / qpmin=0 / qpmax=51 / qpstep=4 / cplxblur=20.0 / qblur=0.5 / ip_ratio=1.30 / pb_ratio=1.20 / aq=3:0.80
Language : English
Default : Yes
Forced : No
Color primaries : BT.709-5, BT.1361, IEC 61966-2-4, SMPTE RP177
Transfer characteristics : BT.709-5, BT.1361
Matrix coefficients : BT.709-5, BT.1361, IEC 61966-2-4 709, SMPTE RP177
Audio #1
ID : 2
Format : AC-3
Format/Info : Audio Coding 3
Mode extension : CM (complete main)
Format settings, Endianness : Big
Codec ID : A_AC3
Duration : 1h 55mn
Bit rate mode : Constant
Bit rate : 448 Kbps
Channel(s) : 6 channels
Channel positions : Front: L C R, Side: L R, LFE
Sampling rate : 48.0 KHz
Bit depth : 16 bits
Compression mode : Lossy
Stream size : 371 MiB (18%)
Title : MVO
Language : Russian
Default : Yes
Forced : No
Audio #2
ID : 3
Format : MPEG Audio
Format version : Version 1
Format profile : Layer 3
Mode : Joint stereo
Mode extension : MS Stereo
Codec ID : A_MPEG/L3
Codec ID/Hint : MP3
Duration : 1h 55mn
Bit rate mode : Constant
Bit rate : 128 Kbps
Channel(s) : 2 channels
Sampling rate : 44.1 KHz
Compression mode : Lossy
Stream size : 106 MiB (5%)
Title : Xusan_Gr@nd
Writing library : LAME3.98.2
Language : Uzbek
Default : No
Forced : No
-
.torrent yuklash

Yuqori tezlikda va bepul ko‘chirish!

Qanday yuklab olinadi? · Torrent nima o‘zi? · Reyting va cheklovlar

Profil ShX

AxeL

Jins:
Yigit
Staj:
1 yil 6 oy
Xabarlar:
756

Qayerdan: Gronland, Norway

Taqiq:

Yahshi kinoga o'xshayapdi, tvda ozgina ko'rgandim

Mavzu yaratish 12-Iyul-2019 00:12 (1 soat 59 daqiqa o‘tgach)

Iqitibos

Profil ShX

Gr@nd ®

Jins:
Yigit
Staj:
2 yil
Xabarlar:
170

Qayerdan: Jizzax Forish

Taqiq:

Shuncha mexnat qilasan senga Raxmat tugmasini bosishga qiynaladi

Mavzu yaratish 12-Iyul-2019 19:35 (19 soat o‘tgach)

Iqitibos

Profil ShX

Soft-Release

Jins:
Yigit
Staj:
1 yil 7 oy
Xabarlar:
835

Qayerdan: Kattakurgan

Taqiq:

8490Shuncha mexnat qilasan senga Raxmat tugmasini bosishga qiynaladi
Gr@nd, A Endi So'rab Olmaymizku Shuni Ham Foydalanuvchilar Ham Kallasini Ishlatsinda O'zi Ham!

Mavzu yaratish 12-Iyul-2019 20:34 (58 daqiqa o‘tgach)

Iqitibos

Profil ShX
Xabarlarni ko‘rsatish:    

Hozirgi vaqt: 15-Okt 18:28

Vaqtlar farqi: UTC + 5



Siz mavzu yaratishingiz mumkin emas
Siz xabarlarga javob qaytarishingiz mumkin emas
Siz o‘z xabarlaringizni tahrirlashingiz mumkin emas
Siz o‘z xabarlaringizni o‘chirishingiz mumkin emas
Siz so‘rovlarda ovoz berishingiz mumkin emas
Siz xabalarga fayllarni biriktirishingiz mumkin emas
Siz fayllarni ko‘chirishingiz mumkin emas