˂
˃
Tarqatmalar statistikasi
Ko‘chirib bo‘ldim: [ 8 ]
 
     
 
 

N.U.R.I.K.B.E.K ®

Jins:
Yigit
Staj:
1 yil 11 oy
Xabarlar:
539

Qayerdan: Jizzax. Paxtakor

Taqiq:

-Qaysar Qizning Quyilishi
Укрощение строптивой
The Taming of the Shrew

--Chiqqan yili: 1967
Davlat: AQSH, Italiya.
Janr: Drama, Komediya, Melodramma.
Davomiyligi: 01:56:49
Tarjima 1: UZHD O'zbek Tilida
Tarjima 2: Ko'p Ovozli Rus Tili--Rejissyor: Franko Zeffirelli.--Rollarda: Elizabet Teylor, Richard Burton, Cyril Cusack, Maykl Hordern, Alfred Lynch, Alan Webb, Giancarlo Cobelli, Vernon Dobchefff, Ken Parry, Entoni Gardner.--Tavsif: Italiya, XVI asr. Boy savdogarning ikkita qizi bor. Ko'pchilik kichik qizga g'amxo'rlik qiladi, lekin an'anaga ko'ra, u katta singlisiga turmushga chiqa olmaydi. Ovchilar qataringa uylanmaydilar. Shunday qilib, Petruccio ismli bir begona shaharga keladi va har qanday tarzda o'jar qizni uyg'otishga qaror qiladi.--Videoning sifati: DVDRip
Video format: MKV--Video: MPEG4 Video (H264) 640x270 (71:30) 25fps 570 kb/s
Audio: MP3 48000Hz stereo 128kbps O'zbek Tili
Audio 2: AAC 44100Hz stereo Rus Tili--

Media Info

General
Format : Matroska
Format version : Version 4 / Version 2
File size : 640 MiB
Duration : 1 h 56 min
Overall bit rate : 766 kb/s
Encoded date : UTC 2019-07-11 07:11:05
Writing application : mkvmerge v15.0.0 ('Duel with the Devil') 64-bit
Writing library : libebml v1.3.5 + libmatroska v1.4.5
Video
ID : 1
Format : AVC
Format/Info : Advanced Video Codec
Format profile : High@L2.1
Format settings, CABAC : Yes
Format settings, RefFrames : 3 frames
Codec ID : V_MPEG4/ISO/AVC
Duration : 1 h 56 min
Bit rate : 570 kb/s
Width : 640 pixels
Height : 270 pixels
Display aspect ratio : 2.35:1
Original display aspect ratio : 2.35:1
Frame rate mode : Constant
Frame rate : 25.000 FPS
Color space : YUV
Chroma subsampling : 4:2:0
Bit depth : 8 bits
Scan type : Progressive
Bits/(Pixel*Frame) : 0.132
Stream size : 477 MiB (75%)
Writing library : x264 core 142 r2455 021c0dc
Default : Yes
Forced : No
Audio #1
ID : 2
Format : MPEG Audio
Format version : Version 1
Format profile : Layer 3
Mode : Joint stereo
Mode extension : MS Stereo
Codec ID : A_MPEG/L3
Codec ID/Hint : MP3
Duration : 1 h 56 min
Bit rate mode : Constant
Bit rate : 128 kb/s
Channel(s) : 2 channels
Sampling rate : 48.0 kHz
Frame rate : 41.667 FPS (1152 SPF)
Compression mode : Lossy
Delay relative to video : -23 ms
Stream size : 107 MiB (17%)
Title : O'zbek Tili
Writing library : LAME3.99.5
Language : Uzbek
Default : Yes
Forced : No
Audio #2
ID : 3
Format : AAC
Format/Info : Advanced Audio Codec
Format profile : LC
Codec ID : A_AAC
Duration : 1 h 56 min
Bit rate : 64.0 kb/s
Channel(s) : 2 channels
Channel positions : Front: L R
Sampling rate : 44.1 kHz
Frame rate : 43.066 FPS (1024 SPF)
Compression mode : Lossy
Delay relative to video : -23 ms
Stream size : 53.5 MiB (8%)
Title : Rus Tili
Language : Russian
Default : No
Forced : No
LAVHALAR
.torrent yuklash

Yuqori tezlikda va bepul ko‘chirish!

Qanday yuklab olinadi? · Torrent nima o‘zi? · Reyting va cheklovlar

Profil ShX

SobirR

Jins:
Yigit
Staj:
1 yil 6 oy
Xabarlar:
236

Qayerdan: Navoiy. Uchquduq

Taqiq:

Shekspir

Mavzu yaratish 14-Iyul-2019 14:59 (2 kun 22 soat o‘tgach)

Iqitibos

Profil ShX
Xabarlarni ko‘rsatish:    

Hozirgi vaqt: 18-Okt 04:28

Vaqtlar farqi: UTC + 5



Siz mavzu yaratishingiz mumkin emas
Siz xabarlarga javob qaytarishingiz mumkin emas
Siz o‘z xabarlaringizni tahrirlashingiz mumkin emas
Siz o‘z xabarlaringizni o‘chirishingiz mumkin emas
Siz so‘rovlarda ovoz berishingiz mumkin emas
Siz xabalarga fayllarni biriktirishingiz mumkin emas
Siz fayllarni ko‘chirishingiz mumkin emas