˂
˃
Tarqatmalar statistikasi
Ko‘chirib bo‘ldim: [ 2 ]
 
     
 
 

Soft-Release ®

Jins:
Yigit
Staj:
1 yil 7 oy
Xabarlar:
835

Qayerdan: Kattakurgan

Taqiq:

Shazam! / Шазам! -Chiqqan Yili: 2019
Davlat: AQSH
Janr: Fantastika, Jangari, Komediya
Davomiyligi: 02:11:43
Tarjima: Professional (Ko'p Ovozli) [Yoshlar]-Subtitrlar: Inglizcha-Rejissyor: Devid F. Sendbyorg-Rollarda: Zekari Livey, Mishel Bort, Jimon Honsu, Mark Strong, Jek Dilan Greyzer, Esher Endjl, Marta Milens, Migan Gud, Greys Fulton, Adam Brodi-Tavsif: Har birimizda bizda qudratli qahramon mavjud bo'lib, buni bizga ko'rsatish uchun faqat biroz sehrga muhtojmiz. Billy Betson bir so'zni - SHAZAM! deb aytib baqirishga majbur - shuning uchun qadimgi sehrgarning yordami bilan aqlli o'n to'rt yoshli boladan juda katta qahramon Shazamga aylanadi. U katta yoshli, qudratli badanda bo'lsa ham, qalbida, bolaligicha qoladi, shuning uchun u buyuk kuchlarni qo'lga kiritgan o'smirga qanday ta'sir qilishi mumkinligini o'zi bajarishi mumkin - u bu katta-katta versiyada o'zini to'la-to'kis tashlab ketmoqda! U uchishi mumkinmi? Uning rentgenogrammasi bormi? U qo'lidan chaqmoq urishi mumkinmi? Ijtimoiy tadqiqotlar ustidan nazoratni o'tkaza olasizmi? Shazam qobiliyatlari chegaralarini yaramaydi bolaning beparvoligi bilan tekshiradi. Lekin u yomon doktor Tadeus Sivananing o'lik kuchlariga qarshi kurashish qobiliyatlarini tezlik bilan nazorat qilishlari kerak.- -Sifat: BDRip 2160p HEVC 10bit
Format: MKV
Video: HEVC HDR, 4324 Kb/s, 3840x1600, 10bit
Audio №1: AAC, 6 ch, 240 Kb/s
Audio №2: AAC, 8 ch, 288 Kb/s
Audio №3: MP3, 2 ch, 128 Kb/s-

MediaInfo

General
Unique ID : 225665859423756338481592250307986573603 (0xA9C5A9E247B03370BE067CC367CBC923)
Complete name : Перевод Фильмы Узбекиский\Shazam.2019.2160p.10bit.HDR.BluRay.8CH.x265.HEVC.UZTRACKER.ME.mkv
Format : Matroska
Format version : Version 4
File size : 4.58 GiB
Duration : 2 h 11 min
Overall bit rate : 4 983 kb/s
Movie name : PSArips.com | Shazam.2019.2160p.10bit.HDR.BluRay.8CH.x265.HEVC.UZTRACKER.ME
Encoded date : UTC 2019-07-09 11:02:05
Writing application : mkvmerge v34.0.0 ('Sight and Seen') 64-bit
Writing library : libebml v1.3.7 + libmatroska v1.5.0
Video
ID : 1
Format : HEVC
Format/Info : High Efficiency Video Coding
Commercial name : HDR10
Format profile : Main 10@L5@Main
Codec ID : V_MPEGH/ISO/HEVC
Duration : 2 h 11 min
Bit rate : 4 324 kb/s
Width : 3 840 pixels
Height : 1 600 pixels
Display aspect ratio : 2.40:1
Frame rate mode : Constant
Frame rate : 23.976 (24000/1001) FPS
Color space : YUV
Chroma subsampling : 4:2:0
Bit depth : 10 bits
Bits/(Pixel*Frame) : 0.029
Stream size : 3.98 GiB (87%)
Default : Yes
Forced : No
Color range : Limited
Color primaries : BT.2020
Transfer characteristics : PQ
Matrix coefficients : BT.2020 non-constant
Mastering display color primar : Display P3
Mastering display luminance : min: 0.0050 cd/m2, max: 4000 cd/m2
Maximum Content Light Level : 1351 cd/m2
Maximum Frame-Average Light Le : 384 cd/m2
Audio #1
ID : 2
Format : MPEG Audio
Format version : Version 1
Format profile : Layer 3
Format settings : Joint stereo / MS Stereo
Codec ID : A_MPEG/L3
Codec ID/Hint : MP3
Duration : 2 h 11 min
Bit rate mode : Constant
Bit rate : 128 kb/s
Channel(s) : 2 channels
Sampling rate : 48.0 kHz
Frame rate : 41.667 FPS (1152 SPF)
Compression mode : Lossy
Stream size : 121 MiB (3%)
Writing library : LAME3.99.5
Language : Uzbek
Default : Yes
Forced : No
Audio #2
ID : 3
Format : AAC LC SBR
Format/Info : Advanced Audio Codec Low Complexity with Spectral Band Replication
Commercial name : HE-AAC
Format settings : Explicit
Codec ID : A_AAC-2
Duration : 2 h 11 min
Bit rate : 239 kb/s
Channel(s) : 6 channels
Channel layout : C L R Ls Rs LFE
Sampling rate : 48.0 kHz
Frame rate : 23.438 FPS (2048 SPF)
Compression mode : Lossy
Delay relative to video : 31 ms
Stream size : 225 MiB (5%)
Language : Russian
Default : No
Forced : No
Audio #3
ID : 4
Format : AAC LC SBR
Format/Info : Advanced Audio Codec Low Complexity with Spectral Band Replication
Commercial name : HE-AAC
Format settings : Explicit
Codec ID : A_AAC-2
Duration : 2 h 11 min
Bit rate : 288 kb/s
Channel(s) : 8 channels
Channel layout : C L R Ls Rs Lb Rb LFE
Sampling rate : 48.0 kHz
Frame rate : 23.438 FPS (2048 SPF)
Compression mode : Lossy
Delay relative to video : 31 ms
Stream size : 272 MiB (6%)
Language : English
Default : No
Forced : No
Text #1
ID : 5
Format : UTF-8
Codec ID : S_TEXT/UTF8
Codec ID/Info : UTF-8 Plain Text
Duration : 2 h 11 min
Bit rate : 52 b/s
Count of elements : 1757
Stream size : 50.3 KiB (0%)
Language : English
Default : Yes
Forced : No
Text #2
ID : 6
Format : UTF-8
Codec ID : S_TEXT/UTF8
Codec ID/Info : UTF-8 Plain Text
Duration : 2 h 11 min
Bit rate : 64 b/s
Count of elements : 2184
Stream size : 61.9 KiB (0%)
Title : SDH
Language : English
Default : No
Forced : No

.torrent yuklash

Yuqori tezlikda va bepul ko‘chirish!

Qanday yuklab olinadi? · Torrent nima o‘zi? · Reyting va cheklovlar

Profil ShX

Soft-Release ®

Jins:
Yigit
Staj:
1 yil 7 oy
Xabarlar:
835

Qayerdan: Kattakurgan

Taqiq:

Ushbu Reliz Zamonaviy x265 HEVC Kodek Formatda Tayyorlandi! Ajoyib HD Tiniq Sifatda HEVC 10bit Rang MKV Formatda Va Albatta Kichik Hajmda Yuklab Oling Tomosha Qiling Zavqlaning,

Mavzu yaratish 10-Iyul-2019 14:06 (1 soat 13 daqiqa o‘tgach)

Iqitibos

Profil ShX

UmarShoh

Jins:
Yigit
Staj:
1 yil 7 oy
Xabarlar:
402
Taqiq:

4K formatdagi ushbu kino filmni kompyuter ocha olmayabti! ag

Mavzu yaratish 15-Iyul-2019 14:15 (5 kun o‘tgach)

Iqitibos

Profil ShX

Soft-Release ®

Jins:
Yigit
Staj:
1 yil 7 oy
Xabarlar:
835

Qayerdan: Kattakurgan

Taqiq:

84984K formatdagi ushbu kino filmni kompyuter ocha olmayabti! ag
UmarShoh, Ochadi Nu Qotadida

Mavzu yaratish 15-Iyul-2019 14:46 (31 daqiqa o‘tgach)

Iqitibos

Profil ShX
Xabarlarni ko‘rsatish:    

Hozirgi vaqt: 15-Okt 03:34

Vaqtlar farqi: UTC + 5



Siz mavzu yaratishingiz mumkin emas
Siz xabarlarga javob qaytarishingiz mumkin emas
Siz o‘z xabarlaringizni tahrirlashingiz mumkin emas
Siz o‘z xabarlaringizni o‘chirishingiz mumkin emas
Siz so‘rovlarda ovoz berishingiz mumkin emas
Siz xabalarga fayllarni biriktirishingiz mumkin emas
Siz fayllarni ko‘chirishingiz mumkin emas