˂
˃
Tarqatmalar statistikasi
Ko‘chirmoqdaman: [ 2 ]
Ko‘chirib bo‘ldim: [ 8 ]
 
     
 
 

Soft-Release ®

Jins:
Yigit
Staj:
1 yil 7 oy
Xabarlar:
835

Qayerdan: Kattakurgan

Taqiq:

Alita Jangchi Farishta / Алита Боевой Aнгел / Alita: Battle Angel -Chiqqan yili: 2019
Davlat: Kanada, Argentina, AQSH
Janr: Fantastik, Jangari, Triller, Melodrama, Sarguzasht
Davomiyligi: 02:01:47
Tarjima: Professional (Ko'p Ovozli) [MY5]-Subtitrlar: Inglizcha-Rejissyor: Robert Rodriges-Rollarda: Roza Salazar, Kristof Vals, Jennifer Konnelli, Mahershala Ali, Ed Skreyn, Jackie Earl Haley, Kin Jonson, Xorxe Lendeborg ml., Lana Kondor, Idara Viktor-Tavsif: Film XXVI asrda buyuk urushdan 300 yil keyin sodir bo'ladi. Doktor Ido kiborg ayolining qoldiqlarini topadi. Ta'mirdan so'ng kiborg hech narsani eslay olmaydi, lekin u kiborglarning jangovar usullaridan foydalanish imkoniyatiga ega ekanligini tushunadi. Yo'qotilgan xotiralarni qidirish boshlanadi.- -Качество: WEB-DLRip-HEVC 720p
Sifay: MKV
Video: HEVC, 1280x720, 23.976 fps, 1001 Kbps
Audio №1: AC3, 2 ch, 192 kb/s | RUS
Audio №2: AAC, 2 ch, 88 kbps | ENG
Audio №3: MP3, 2 ch, 128 kb/s | UZB-

MediaInfo

General
Unique ID : 21257215654630738668000678191835733608 (0xFFDFDA62401437AD6DE477D0FA55E68)
Complete name : Перевод Фильмы Узбекиский\Alita.Battle.Angel.2019.WEB-DLRip 720p.x265 HEVC.UZTRACKER.ME.mkv
Format : Matroska
Format version : Version 4
File size : 1.20 GiB
Duration : 2 h 1 min
Overall bit rate : 1 411 kb/s
Movie name : Alita.Battle.Angel.2019.WEB-DLRip 720p.x265 HEVC.UZTRACKER.ME.mkv
Encoded date : UTC 2019-07-05 13:49:09
Writing application : mkvmerge v34.0.0 ('Sight and Seen') 64-bit
Writing library : libebml v1.3.7 + libmatroska v1.5.0
Video
ID : 1
Format : HEVC
Format/Info : High Efficiency Video Coding
Format profile : Main@L3.1@Main
Codec ID : V_MPEGH/ISO/HEVC
Duration : 2 h 1 min
Bit rate : 1 001 kb/s
Width : 1 280 pixels
Height : 720 pixels
Display aspect ratio : 16:9
Frame rate mode : Constant
Frame rate : 23.976 (24000/1001) FPS
Color space : YUV
Chroma subsampling : 4:2:0
Bit depth : 8 bits
Bits/(Pixel*Frame) : 0.045
Stream size : 872 MiB (71%)
Default : Yes
Forced : No
Audio #1
ID : 2
Format : MPEG Audio
Format version : Version 1
Format profile : Layer 3
Format settings : Joint stereo / MS Stereo
Codec ID : A_MPEG/L3
Codec ID/Hint : MP3
Duration : 2 h 1 min
Bit rate mode : Constant
Bit rate : 128 kb/s
Channel(s) : 2 channels
Sampling rate : 48.0 kHz
Frame rate : 41.667 FPS (1152 SPF)
Compression mode : Lossy
Stream size : 112 MiB (9%)
Title : O'zbek Tili
Language : Uzbek
Default : Yes
Forced : No
Audio #2
ID : 3
Format : AC-3
Format/Info : Audio Coding 3
Commercial name : Dolby Digital
Codec ID : A_AC3
Duration : 2 h 1 min
Bit rate mode : Constant
Bit rate : 192 kb/s
Channel(s) : 2 channels
Channel layout : L R
Sampling rate : 48.0 kHz
Frame rate : 31.250 FPS (1536 SPF)
Bit depth : 16 bits
Compression mode : Lossy
Stream size : 167 MiB (14%)
Language : Russian
Service kind : Complete Main
Default : No
Forced : No
Audio #3
ID : 4
Format : AAC LC SBR
Format/Info : Advanced Audio Codec Low Complexity with Spectral Band Replication
Commercial name : HE-AAC
Format settings : Explicit
Codec ID : A_AAC-2
Duration : 2 h 1 min
Bit rate : 88.0 kb/s
Channel(s) : 2 channels
Channel layout : L R
Sampling rate : 48.0 kHz
Frame rate : 23.438 FPS (2048 SPF)
Compression mode : Lossy
Delay relative to video : 31 ms
Stream size : 76.6 MiB (6%)
Language : English
Default : No
Forced : No
Text
ID : 5
Format : UTF-8
Codec ID : S_TEXT/UTF8
Codec ID/Info : UTF-8 Plain Text
Duration : 1 h 56 min
Bit rate : 40 b/s
Count of elements : 1348
Stream size : 34.9 KiB (0%)
Language : English
Default : No
Forced : No

.torrent yuklash

Yuqori tezlikda va bepul ko‘chirish!

Qanday yuklab olinadi? · Torrent nima o‘zi? · Reyting va cheklovlar



So‘ngi marta tahrirlandi: Soft-Release (2019-07-06 13:47), Jami tahrirlangan 1 marta
Profil ShX

Soft-Release ®

Jins:
Yigit
Staj:
1 yil 7 oy
Xabarlar:
835

Qayerdan: Kattakurgan

Taqiq:

Ushbu Reliz Zamonaviy x265 HEVC Kodek Formatda Tayyorlandi! Ajoyib HD Tiniq Sifatda HEVC 10bit Rang MKV Formatda Va Albatta Kichik Hajmda Yuklab Oling Tomosha Qiling Zavqlaning.

Mavzu yaratish 06-Iyul-2019 01:34 (10 daqiqa o‘tgach)

Iqitibos

Profil ShX
Xabarlarni ko‘rsatish:    

Hozirgi vaqt: 15-Okt 03:56

Vaqtlar farqi: UTC + 5



Siz mavzu yaratishingiz mumkin emas
Siz xabarlarga javob qaytarishingiz mumkin emas
Siz o‘z xabarlaringizni tahrirlashingiz mumkin emas
Siz o‘z xabarlaringizni o‘chirishingiz mumkin emas
Siz so‘rovlarda ovoz berishingiz mumkin emas
Siz xabalarga fayllarni biriktirishingiz mumkin emas
Siz fayllarni ko‘chirishingiz mumkin emas