˂
˃
Tarqatmalar statistikasi
Ko‘chirib bo‘ldim: [ 18 ]
 
     
 
 

N.U.R.I.K.B.E.K ®

Jins:
Yigit
Staj:
1 yil 11 oy
Xabarlar:
537

Qayerdan: Jizzax. Paxtakor

Taqiq:

-Tabib | Знахарь | Znachor
--Chiqqan yili: 1981
Davlat: Polsha
Janr: Drama, Melodrama
Davomiyligi: 02:08:07
Tarjima 1: O'zbekistonTv O'zbek Tilida
Tarjima 2: Ko'p Ovozli Rus Tili--Rejissyor: Yeji Goffman.--Rollarda: Yeji Binchiskiy, Anna Dimna, Tomash Stokkinger, Bernard Ladysh, Artur Bartsish, Andjey Kopichinskiy, Piter Grabovskiy, Bozena Dikel, Mariya Homerska, Igor Smyalovskiy--Tavsif: Ajoyib jarroh Rafal Vilchur bilan butun hayotini o'zgartirgan fojia yuz beradi. Xotini va qizi ketadi, o'sha kuni u ko'chada pul va hujjatsiz topadi. U bir necha yillar davomida yurish va qayg'u bilan omon qolishi kerak.
Shunga qaramay, taqdir taqdiri uning yuziga aylanadi. Tegirmon oilasida boshpana topib, u kasal o'g'lini qutqaradi va oilaning a'zosi bo'ladi. "Sehrgar" haqidagi mish-mishlar butun tuman bo'ylab tarqaladi... va tez orada u xotini kabi go'zal qiz bilan uchrashadi…--Videoning sifati: HDRip
Video format: MKV--Video: MPEG4 Video (H264) 704x424 25fps 2 239 kb/s
Audio: MP3 48000Hz stereo 128kbps O'zbek Tili
Audio 2: Dolby AC3 48000Hz stereo 192kbps Rus Tili--

Media Info

General
Format : Matroska
Format version : Version 4 / Version 2
File size : 2.29 GiB
Duration : 2 h 8 min
Overall bit rate : 2 561 kb/s
Movie name : Знахарь / Znachor / 1982 -=NN@LIFE=-
Encoded date : UTC 2019-07-05 19:55:21
Writing application : mkvmerge v15.0.0 ('Duel with the Devil') 64-bit
Writing library : libebml v1.3.5 + libmatroska v1.4.5
Attachments : 500.jpg / 500.jpg
Video
ID : 1
Format : AVC
Format/Info : Advanced Video Codec
Format profile : High@L4.1
Format settings, CABAC : Yes
Format settings, RefFrames : 8 frames
Codec ID : V_MPEG4/ISO/AVC
Duration : 2 h 8 min
Bit rate : 2 239 kb/s
Width : 704 pixels
Height : 424 pixels
Display aspect ratio : 5:3
Frame rate mode : Constant
Frame rate : 25.000 FPS
Color space : YUV
Chroma subsampling : 4:2:0
Bit depth : 8 bits
Scan type : Progressive
Bits/(Pixel*Frame) : 0.300
Stream size : 2.00 GiB (87%)
Title : Rip by nnlabetik
Writing library : x264 core 148 r2692 64f4e24
Language : Polish
Default : Yes
Forced : No
Color range : Limited
Color primaries : BT.709
Transfer characteristics : BT.709
Matrix coefficients : BT.709
Audio #1
ID : 2
Format : MPEG Audio
Format version : Version 1
Format profile : Layer 3
Mode : Joint stereo
Mode extension : MS Stereo
Codec ID : A_MPEG/L3
Codec ID/Hint : MP3
Duration : 2 h 8 min
Bit rate mode : Constant
Bit rate : 128 kb/s
Channel(s) : 2 channels
Sampling rate : 48.0 kHz
Frame rate : 41.667 FPS (1152 SPF)
Compression mode : Lossy
Stream size : 117 MiB (5%)
Title : O'zbek Tili
Writing library : LAME3.99.5
Language : Uzbek
Default : Yes
Forced : No
Audio #2
ID : 3
Format : AC-3
Format/Info : Audio Coding 3
Format settings, Endianness : Big
Codec ID : A_AC3
Duration : 2 h 8 min
Bit rate mode : Constant
Bit rate : 192 kb/s
Channel(s) : 2 channels
Channel positions : Front: L R
Sampling rate : 48.0 kHz
Frame rate : 31.250 FPS (1536 SPF)
Bit depth : 16 bits
Compression mode : Lossy
Stream size : 176 MiB (7%)
Title : Rus Tili
Language : Russian
Service kind : Complete Main
Default : No
Forced : No
LAVHALAR
.torrent yuklash

Yuqori tezlikda va bepul ko‘chirish!

Qanday yuklab olinadi? · Torrent nima o‘zi? · Reyting va cheklovlar

Profil ShX

Vampire_1987

Jins:
Ko‘rsatilmagan
Staj:
2 yil 1 oy
Xabarlar:
131
Taqiq:

Yaxshi Kino Korishni Tavsiya Qilaman !

Mavzu yaratish 06-Iyul-2019 11:00 (9 soat o‘tgach)

Iqitibos

Profil ShX

N.U.R.I.K.B.E.K ®

Jins:
Yigit
Staj:
1 yil 11 oy
Xabarlar:
537

Qayerdan: Jizzax. Paxtakor

Taqiq:

Tortibo'lip quyon bo'lmasdan razdachada tursalarin bo'midimi

Mavzu yaratish 07-Iyul-2019 09:39 (22 soat o‘tgach)

Iqitibos

Profil ShX

max_d

Jins:
Ko‘rsatilmagan
Staj:
8 oy 26 kun
Xabarlar:
1
Taqiq:

биза шуттамиз кечаю кундуз! бемалол кучираверингла!

Mavzu yaratish 07-Iyul-2019 11:17 (1 soat 37 daqiqa o‘tgach)

Iqitibos

Profil ShX

N.U.R.I.K.B.E.K ®

Jins:
Yigit
Staj:
1 yil 11 oy
Xabarlar:
537

Qayerdan: Jizzax. Paxtakor

Taqiq:

max_d, axa gap isboti bilan

Mavzu yaratish 07-Iyul-2019 12:48 (1 soat 30 daqiqa o‘tgach)

Iqitibos

Profil ShX

Soft-Release

Jins:
Yigit
Staj:
1 yil 7 oy
Xabarlar:
835

Qayerdan: Kattakurgan

Taqiq:

8471Tortibo'lip quyon bo'lmasdan razdachada tursalarin bo'midimi
N.U.R.I.K.B.E.K, bj Gapni Ham Joyida Yedirasizda

Mavzu yaratish 07-Iyul-2019 13:28 (40 daqiqa o‘tgach)

Iqitibos

Profil ShX

N.U.R.I.K.B.E.K ®

Jins:
Yigit
Staj:
1 yil 11 oy
Xabarlar:
537

Qayerdan: Jizzax. Paxtakor

Taqiq:

Soft-Release, razdachada turgani bilan tarqatmasi bõlmasa birtiyin

Mavzu yaratish 07-Iyul-2019 15:32 (2 soat 4 daqiqa o‘tgach)

Iqitibos

Profil ShX

Soft-Release

Jins:
Yigit
Staj:
1 yil 7 oy
Xabarlar:
835

Qayerdan: Kattakurgan

Taqiq:

8475Soft-Release, razdachada turgani bilan tarqatmasi bõlmasa birtiyin
N.U.R.I.K.B.E.K, ADSL Da Nima Deysiz Endi Tushunsa Bo'ladi Bro! Ha Mayli Man Ba'zi Yuklab Olgan Relizlarizni Tarqatishga Qo'yib Qo'yganman Ko'ngliz To'q Bo'lsin! Sog'ligiz Uchun! az

Mavzu yaratish 07-Iyul-2019 17:46 (2 soat 13 daqiqa o‘tgach)

Iqitibos

Profil ShX

Lock

Jins:
Yigit
Staj:
1 yil
Xabarlar:
49

Qayerdan: Namangan

Taqiq:

O gap yo'q, juda super

Mavzu yaratish 09-Iyul-2019 07:42 (1 kun 13 soat o‘tgach)

Iqitibos

Profil ShX
Xabarlarni ko‘rsatish:    

Hozirgi vaqt: 15-Okt 04:02

Vaqtlar farqi: UTC + 5



Siz mavzu yaratishingiz mumkin emas
Siz xabarlarga javob qaytarishingiz mumkin emas
Siz o‘z xabarlaringizni tahrirlashingiz mumkin emas
Siz o‘z xabarlaringizni o‘chirishingiz mumkin emas
Siz so‘rovlarda ovoz berishingiz mumkin emas
Siz xabalarga fayllarni biriktirishingiz mumkin emas
Siz fayllarni ko‘chirishingiz mumkin emas