˂
˃
Tarqatmalar statistikasi
Ko‘chirib bo‘ldim: [ 7 ]
 
     
 
 

erkin.pardayev ®

Jins:
Yigit
Staj:
3 oy 21 kun
Xabarlar:
29

Qayerdan: Qarshi

Taqiq:

Osmondagi bolalar 2
Жанр: Melodrama, Komediya, Oilaviy
Год выпуска: 2003
Продолжительность: 01:26:18
Режиссёр: Zulfiqor Musoqov
В ролях: Muzaffar Sadullaev
Timur Musoqov
Kristina Toirova
Aziz Sultonov
Davron Gulomov
Malika Alimova
Nozim Tulakhodjaev
Описание: Film Hamdam, Xurshid, Javohir va Baxtiyor ismli yigitlarning keyingi hayotiy kechinmalari haqida. "Osmondagi bolalar" filmining mantiqiy davomi.
Videoning sifati: DVD5
Формат видео: MP4
Видео: AVC, 1280x720, 16:9, 25 FPS
Аудио: UZB, AAC LC, 177 kb/s, 2 channels, 44.1 kHz, 43.066 FPS (1024 SPF)

MediaInfo

General
Format                         : MPEG-4
Format profile                 : Base Media
Codec ID                       : isom (isom/iso2/avc1/mp41)
File size                      : 766 MiB
Duration                       : 1 h 26 min
Overall bit rate               : 1 241 kb/s
Writing application            : Lavf56.40.101
Video
ID                             : 1
Format                         : AVC
Format/Info                    : Advanced Video Codec
Format profile                 : High@L3.1
Format settings                : CABAC / 3 Ref Frames
Format settings, CABAC         : Yes
Format settings, Reference fra : 3 frames
Codec ID                       : avc1
Codec ID/Info                  : Advanced Video Coding
Duration                       : 1 h 26 min
Bit rate                       : 1 061 kb/s
Width                          : 1 280 pixels
Height                         : 720 pixels
Display aspect ratio           : 16:9
Frame rate mode                : Constant
Frame rate                     : 25.000 FPS
Color space                    : YUV
Chroma subsampling             : 4:2:0
Bit depth                      : 8 bits
Scan type                      : Progressive
Bits/(Pixel*Frame)             : 0.046
Stream size                    : 654 MiB (85%)
Writing library                : x264 core 142 r2455 021c0dc
Encoding settings              : cabac=1 / ref=1 / deblock=1:2:2 / analyse=0x3:0x113 / me=dia / subme=2 / psy=1 / psy_rd=1.00:0.00 / mixed_ref=0 / me_range=16 / chroma_me=1 / trellis=0 / 8x8dct=1 / cqm=0 / deadzone=21,11 / fast_pskip=1 / chroma_qp_offset=0 / threads=36 / lookahead_threads=5 / sliced_threads=0 / nr=0 / decimate=1 / interlaced=0 / bluray_compat=0 / constrained_intra=0 / bframes=3 / b_pyramid=1 / b_adapt=1 / b_bias=0 / direct=1 / weightb=1 / open_gop=0 / weightp=2 / keyint=60 / keyint_min=25 / scenecut=0 / intra_refresh=0 / rc_lookahead=40 / rc=abr / mbtree=1 / bitrate=1061 / ratetol=1.0 / qcomp=0.60 / qpmin=10 / qpmax=51 / qpstep=4 / ip_ratio=1.41 / aq=1:1.00
Tagged date                    : UTC 2017-02-14 11:55:11
Codec configuration box        : avcC
Audio
ID                             : 2
Format                         : AAC LC
Format/Info                    : Advanced Audio Codec Low Complexity
Codec ID                       : mp4a-40-2
Duration                       : 1 h 26 min
Source duration                : 1 h 26 min
Bit rate mode                  : Constant
Bit rate                       : 177 kb/s
Channel(s)                     : 2 channels
Channel layout                 : L R
Sampling rate                  : 44.1 kHz
Frame rate                     : 43.066 FPS (1024 SPF)
Compression mode               : Lossy
Stream size                    : 109 MiB (14%)
Source stream size             : 109 MiB (14%)
Default                        : Yes
Alternate group                : 1
Tagged date                    : UTC 2017-02-14 11:55:11

Lavhalar

.torrent yuklash

Yuqori tezlikda va bepul ko‘chirish!

Qanday yuklab olinadi? · Torrent nima o‘zi? · Reyting va cheklovlar

Profil ShX
Xabarlarni ko‘rsatish:    

Hozirgi vaqt: 15-Okt 19:26

Vaqtlar farqi: UTC + 5



Siz mavzu yaratishingiz mumkin emas
Siz xabarlarga javob qaytarishingiz mumkin emas
Siz o‘z xabarlaringizni tahrirlashingiz mumkin emas
Siz o‘z xabarlaringizni o‘chirishingiz mumkin emas
Siz so‘rovlarda ovoz berishingiz mumkin emas
Siz xabalarga fayllarni biriktirishingiz mumkin emas
Siz fayllarni ko‘chirishingiz mumkin emas