˂
˃
Tarqatmalar statistikasi
Ko‘chiraman: [ 1 ]
Ko‘chirmoqdaman: [ 4 ]
Ko‘chirib bo‘ldim: [ 52 ]
 
     
 
 

N.U.R.I.K.B.E.K ®

Jins:
Yigit
Staj:
1 yil 11 oy
Xabarlar:
540

Qayerdan: Jizzax. Paxtakor

Taqiq:

-Alita Jangchi Farishta | Алита Боевой Aнгел | Alita Battle Angel
--Chiqqan yili: 2019
Davlat: Kanada, Argentina, AQSH.
Janr: Fantastik, Jangari, Triller, Melodrama, Sarguzasht.
Davomiyligi: 02:01:47
Tarjima 1: MY5 O'zbek Tilida
Tarjima 2: Ko'p Ovozli Rus Tili--Rejissyor: Robert Rodriges--Rollarda: Roza Salazar, Kristof Vals, Jennifer Konnelli, Mahershala Ali, Ed Skreyn, Jackie Earl Haley, Kin Jonson, Xorxe Lendeborg ml., Lana Kondor, Idara Viktor.--Tavsif: Film XXVI asrda buyuk urushdan 300 yil keyin sodir bo'ladi. Doktor Ido kiborg ayolining qoldiqlarini topadi. Ta'mirdan so'ng kiborg hech narsani eslay olmaydi, lekin u kiborglarning jangovar usullaridan foydalanish imkoniyatiga ega ekanligini tushunadi. Yo'qotilgan xotiralarni qidirish boshlanadi.--Videoning sifati: WEB-DLRip-AVC
Video format: MKV--Video: MPEG4 Video (H264) 1024x576 23.976fps 2 133 kb/s
Audio: MP3 48000Hz stereo 128kbps O'zbek Tili
Audio 2: Dolby AC3 48000Hz stereo 192kbps Rus Tili--

Media Info

General
Format : Matroska
Format version : Version 4 / Version 2
File size : 2.09 GiB
Duration : 2 h 1 min
Overall bit rate : 2 453 kb/s
Movie name : Alita Battle Angel.2019 #TorpedoUK#
Encoded date : UTC 2019-07-03 23:02:31
Writing application : mkvmerge v15.0.0 ('Duel with the Devil') 64-bit
Writing library : libebml v1.3.5 + libmatroska v1.4.5
Video
ID : 1
Format : AVC
Format/Info : Advanced Video Codec
Format profile : High@L4.1
Format settings, CABAC : Yes
Format settings, RefFrames : 10 frames
Codec ID : V_MPEG4/ISO/AVC
Duration : 2 h 1 min
Bit rate : 2 133 kb/s
Width : 1 024 pixels
Height : 576 pixels
Display aspect ratio : 16:9
Frame rate mode : Constant
Frame rate : 23.976 (24000/1001) FPS
Color space : YUV
Chroma subsampling : 4:2:0
Bit depth : 8 bits
Scan type : Progressive
Bits/(Pixel*Frame) : 0.151
Stream size : 1.81 GiB (87%)
Writing library : x264 core 146 r2538 121396c
Language : English
Default : Yes
Forced : No
Audio #1
ID : 2
Format : MPEG Audio
Format version : Version 1
Format profile : Layer 3
Mode : Joint stereo
Mode extension : MS Stereo
Codec ID : A_MPEG/L3
Codec ID/Hint : MP3
Duration : 2 h 1 min
Bit rate mode : Constant
Bit rate : 128 kb/s
Channel(s) : 2 channels
Sampling rate : 48.0 kHz
Frame rate : 41.667 FPS (1152 SPF)
Compression mode : Lossy
Stream size : 112 MiB (5%)
Title : O'zbek Tili
Language : Uzbek
Default : Yes
Forced : No
Audio #2
ID : 3
Format : AC-3
Format/Info : Audio Coding 3
Format settings, Endianness : Big
Codec ID : A_AC3
Duration : 2 h 1 min
Bit rate mode : Constant
Bit rate : 192 kb/s
Channel(s) : 2 channels
Channel positions : Front: L R
Sampling rate : 48.0 kHz
Frame rate : 31.250 FPS (1536 SPF)
Bit depth : 16 bits
Compression mode : Lossy
Stream size : 167 MiB (8%)
Title : Rus Tili
Language : Russian
Service kind : Complete Main
Default : No
Forced : No

LAVHALAR
.torrent yuklash

Yuqori tezlikda va bepul ko‘chirish!

Qanday yuklab olinadi? · Torrent nima o‘zi? · Reyting va cheklovlar

Profil ShX

erkin.pardayev

Jins:
Yigit
Staj:
3 oy 27 kun
Xabarlar:
29

Qayerdan: Qarshi

Taqiq:

kinolarni o'zbekcha ko'rish yaxshiyu lekin odatda kesib tashlashadida kinoni ))

Mavzu yaratish 04-Iyul-2019 11:32 (9 soat o‘tgach)

Iqitibos

Profil ShX

N.U.R.I.K.B.E.K ®

Jins:
Yigit
Staj:
1 yil 11 oy
Xabarlar:
540

Qayerdan: Jizzax. Paxtakor

Taqiq:

erkin.pardayev, u joylariga ruscha ovozni qõyabmiz

Mavzu yaratish 04-Iyul-2019 12:31 (59 daqiqa o‘tgach)

Iqitibos

Profil ShX

erkin.pardayev

Jins:
Yigit
Staj:
3 oy 27 kun
Xabarlar:
29

Qayerdan: Qarshi

Taqiq:

8452erkin.pardayev, u joylariga ruscha ovozni qõyabmiz
Qoyil ))

Mavzu yaratish 04-Iyul-2019 12:38 (7 daqiqa o‘tgach)

Iqitibos

Profil ShX

Asilbek 007

Jins:
Ko‘rsatilmagan
Staj:
1 yil 6 oy
Xabarlar:
17
Taqiq:

8452erkin.pardayev, u joylariga ruscha ovozni qõyabmiz
qaysi programmadan qilinadi shu

Mavzu yaratish 13-Iyul-2019 23:18 (9 kun o‘tgach)

Iqitibos

Profil ShX

N.U.R.I.K.B.E.K ®

Jins:
Yigit
Staj:
1 yil 11 oy
Xabarlar:
540

Qayerdan: Jizzax. Paxtakor

Taqiq:

8493
8452erkin.pardayev, u joylariga ruscha ovozni qõyabmiz
qaysi programmadan qilinadi shu
Movavi

Mavzu yaratish 14-Iyul-2019 00:41 (1 soat 22 daqiqa o‘tgach)

Iqitibos

Profil ShX
Xabarlarni ko‘rsatish:    

Hozirgi vaqt: 22-Okt 08:55

Vaqtlar farqi: UTC + 5



Siz mavzu yaratishingiz mumkin emas
Siz xabarlarga javob qaytarishingiz mumkin emas
Siz o‘z xabarlaringizni tahrirlashingiz mumkin emas
Siz o‘z xabarlaringizni o‘chirishingiz mumkin emas
Siz so‘rovlarda ovoz berishingiz mumkin emas
Siz xabalarga fayllarni biriktirishingiz mumkin emas
Siz fayllarni ko‘chirishingiz mumkin emas