˂
˃
Tarqatmalar statistikasi
Ko‘chirmoqdaman: [ 1 ]
Ko‘chirib bo‘ldim: [ 3 ]
 
     
 
 

Soft-Release ®

Jins:
Yigit
Staj:
1 yil 7 oy
Xabarlar:
835

Qayerdan: Kattakurgan

Taqiq:

Uch Tomonlama Tahdid | Тройная угроза | Triple Threat -Chiqqan yili: 2019
Davlat: Tayland, Xitoy, AQSH
Janr: Jangari, Triller, Jinoyat
Davomiyligi: 01:35:09
Tarjima: Professional (Ko'p Ovozli) [MY5]-Subtitrlar: Inglizcha (SDH)-Rejissyor: Jessi Jonson-Rollarda: Toni Ja, Iko Uays, Tayger Chen, Scott Edkins, Selina Jeyd, Maykl Jey Uayd, Dominik Vandenberg, Yanin Vismitananda, Maykl Von, Daniel Uayt-Tavsif: Xalqaro jinoyatchilar guruhi o'zlarining jinoyatchilik faoliyatiga chek qo'yishga muvaffaq bo'lgan milliarderning qizi uchun o'ldirilgan professional qotillar guruhini yuboradi. Qizni qutqarish uchun uchta yollanma askar, o'tmishdagi muvaffaqiyatli jangchilar bo'ladi.- -Sifat: BDRip 720p HEVC 10bit
Format: MKV
Video: HEVC, 1280x536, 23.976fps, 1282 kb/s
Audio №1: MP3, 2 ch, 128kbps [O'zbek Tili]
Audio №2: AAC, 6 ch, 222kbps [Ingliz Tili]-

MediaInfo

General
Unique ID : 130220593130766832506629053244640731453 (0x61F792EF9BDE4BDFAA6F27100946213D)
Complete name : F:\Перевод Фильмы Узбекиский\Triple.Threat.2019.720p.10bit.BluRay.6CH.x265.UZTRACKER.ME.mkv
Format : Matroska
Format version : Version 4
File size : 1.09 GiB
Duration : 1 h 35 min
Overall bit rate : 1 633 kb/s
Movie name : Triple.Threat.2019.720p.10bit.BluRay.6CH.x265.HEVC.UZTRACKER.ME
Encoded date : UTC 2019-07-02 10:55:20
Writing application : mkvmerge v34.0.0 ('Sight and Seen') 64-bit
Writing library : libebml v1.3.7 + libmatroska v1.5.0
Video
ID : 1
Format : HEVC
Format/Info : High Efficiency Video Coding
Format profile : Main 10@L3.1@Main
Codec ID : V_MPEGH/ISO/HEVC
Duration : 1 h 35 min
Bit rate : 1 282 kb/s
Width : 1 280 pixels
Height : 536 pixels
Display aspect ratio : 2.40:1
Frame rate mode : Constant
Frame rate : 23.976 (24000/1001) FPS
Color space : YUV
Chroma subsampling : 4:2:0
Bit depth : 10 bits
Bits/(Pixel*Frame) : 0.078
Stream size : 879 MiB (78%)
Default : Yes
Forced : No
Audio #1
ID : 2
Format : MPEG Audio
Format version : Version 1
Format profile : Layer 3
Format settings : Joint stereo / MS Stereo
Codec ID : A_MPEG/L3
Codec ID/Hint : MP3
Duration : 1 h 35 min
Bit rate mode : Constant
Bit rate : 128 kb/s
Channel(s) : 2 channels
Sampling rate : 48.0 kHz
Frame rate : 41.667 FPS (1152 SPF)
Compression mode : Lossy
Stream size : 87.1 MiB (8%)
Title : O'zbek Tili
Writing library : LAME3.99.5
Language : Uzbek
Default : Yes
Forced : No
Audio #2
ID : 3
Format : AAC LC SBR
Format/Info : Advanced Audio Codec Low Complexity with Spectral Band Replication
Commercial name : HE-AAC
Format settings : Explicit
Codec ID : A_AAC-2
Duration : 1 h 35 min
Bit rate : 222 kb/s
Channel(s) : 6 channels
Channel layout : C L R Ls Rs LFE
Sampling rate : 48.0 kHz
Frame rate : 23.438 FPS (2048 SPF)
Compression mode : Lossy
Stream size : 152 MiB (14%)
Language : English
Default : No
Forced : No
Text #1
ID : 4
Format : UTF-8
Codec ID : S_TEXT/UTF8
Codec ID/Info : UTF-8 Plain Text
Duration : 1 h 31 min
Bit rate : 39 b/s
Count of elements : 976
Stream size : 26.3 KiB (0%)
Title : ENG
Language : English
Default : Yes
Forced : No
Text #2
ID : 5
Format : UTF-8
Codec ID : S_TEXT/UTF8
Codec ID/Info : UTF-8 Plain Text
Duration : 1 h 34 min
Bit rate : 61 b/s
Count of elements : 1635
Stream size : 42.5 KiB (0%)
Title : ENG SDH
Language : English
Default : No
Forced : No

.torrent yuklash

Yuqori tezlikda va bepul ko‘chirish!

Qanday yuklab olinadi? · Torrent nima o‘zi? · Reyting va cheklovlar



So‘ngi marta tahrirlandi: Soft-Release (2019-07-03 12:45), Jami tahrirlangan 1 marta
Profil ShX

Soft-Release ®

Jins:
Yigit
Staj:
1 yil 7 oy
Xabarlar:
835

Qayerdan: Kattakurgan

Taqiq:

Ushbu Reliz Zamonaviy x265 HEVC Kodek Formatda Tayyorlandi! Ajoyib HD Tiniq Sifatda HEVC 10bit Rang MKV Formatda Va Albatta Kichik Hajmda Yuklab Oling Tomosha Qiling Zavqlaning.

Mavzu yaratish 03-Iyul-2019 10:00 (16 daqiqa o‘tgach)

Iqitibos

Profil ShX
Xabarlarni ko‘rsatish:    

Hozirgi vaqt: 15-Okt 03:35

Vaqtlar farqi: UTC + 5



Siz mavzu yaratishingiz mumkin emas
Siz xabarlarga javob qaytarishingiz mumkin emas
Siz o‘z xabarlaringizni tahrirlashingiz mumkin emas
Siz o‘z xabarlaringizni o‘chirishingiz mumkin emas
Siz so‘rovlarda ovoz berishingiz mumkin emas
Siz xabalarga fayllarni biriktirishingiz mumkin emas
Siz fayllarni ko‘chirishingiz mumkin emas