˂
˃
Tarqatmalar statistikasi
Ko‘chirmoqdaman: [ 3 ]
Ko‘chirib bo‘ldim: [ 17 ]
 
     
 
 

Soft-Release ®

Jins:
Yigit
Staj:
1 yil 8 oy
Xabarlar:
845

Qayerdan: Kattakurgan

Taqiq:

Kapitan Marvel / Капитан Марвел / Captain Marvel -Chiqqan Yili: 2019
Davlat: AQSH
Janr: Fantastika, jangari, sarguzasht
Davomiyligi: 02:03:42
Tarjima: Dublyaj Qilingan [iTunes] + Professional Ko'p Ovozli [Yoshlar] + [Original]-Subtitrlar: Ruscha (Forced, full, SDH) Inglizcha (SDH)-Rejissyor: Anna Boden, Rayan Flek/ Ryan Fleck-Rollarda: Bri Larson, Semyuel L. Djekson, Ben Mendelson, Djud Lou, Annett Bening, Lashana Linch, Klark Gregg, Ryun Temt, Djemma Chan, Alxenis Peres Soto-Tavsif: Harbiy-havo uchuvchisi Kerol Denvers o'zga sayyoralik dushmanlarning to'qnashuvidan so'ng super qobiliyatga ega bo'lib, yengilmas qahramonga aylanadi. Qahramon o'zining yangi qobiliyatini kuchli dushmanlarga qarshi ishlatishga to'g'ri keladi.- -Sifat: BDRip 2160p HEVC 10bit
Format: MKV
Video: HEVC HDR, 3840x1616, 2149 Kbit/s, 23.976 fps
Audio №1: 48 kHz, AC3, 6 ch, 384 Kbps | RUS
Audio №2: 48 kHz, AAC, 8 ch, 288 Kbps | ENG
Audio №3: 48 kHz, MP3, 2 ch, 128 Kbps | Yoshlar-

MediaInfo

General
Unique ID : 14427043870051701003051358588992079357 (0xADA8C2E311EC4DF6AA996852A55C5FD)
Complete name : F:\Перевод Фильмы Узбекиский\Captain.Marvel.2019.2160p.10bit.HDR.BluRay.8CH.x265.HEVC.UZTRACKER.ME.mkv
Format : Matroska
Format version : Version 4
File size : 2.55 GiB
Duration : 2 h 3 min
Overall bit rate : 2 954 kb/s
Movie name : PSArips.com | Captain.Marvel.2019.2160p.10bit.HDR.BluRay.8CH.x265.HEVC-PSA
Encoded date : UTC 2019-07-02 10:14:52
Writing application : mkvmerge v34.0.0 ('Sight and Seen') 64-bit
Writing library : libebml v1.3.7 + libmatroska v1.5.0
Video
ID : 1
Format : HEVC
Format/Info : High Efficiency Video Coding
Commercial name : HDR10
Format profile : Main 10@L5@Main
Codec ID : V_MPEGH/ISO/HEVC
Duration : 2 h 3 min
Bit rate : 2 149 kb/s
Width : 3 840 pixels
Height : 1 616 pixels
Display aspect ratio : 2.40:1
Frame rate mode : Constant
Frame rate : 23.976 (24000/1001) FPS
Color space : YUV
Chroma subsampling : 4:2:0
Bit depth : 10 bits
Bits/(Pixel*Frame) : 0.014
Stream size : 1.86 GiB (73%)
Default : Yes
Forced : No
Color range : Limited
Color primaries : BT.2020
Transfer characteristics : PQ
Matrix coefficients : BT.2020 non-constant
Mastering display color pri : Display P3
Mastering display luminance : min: 0.0020 cd/m2, max: 1000 cd/m2
Audio #1
ID : 2
Format : MPEG Audio
Format version : Version 1
Format profile : Layer 3
Format settings : Joint stereo / MS Stereo
Codec ID : A_MPEG/L3
Codec ID/Hint : MP3
Duration : 2 h 3 min
Bit rate mode : Constant
Bit rate : 128 kb/s
Channel(s) : 2 channels
Sampling rate : 48.0 kHz
Frame rate : 41.667 FPS (1152 SPF)
Compression mode : Lossy
Stream size : 113 MiB (4%)
Writing library : LAME3.100
Encoding settings : -m j -V 4 -q 2 -lowpass 17 -b 128
Language : Uzbek
Default : Yes
Forced : No
Audio #2
ID : 3
Format : AC-3
Format/Info : Audio Coding 3
Commercial name : Dolby Digital
Codec ID : A_AC3
Duration : 2 h 3 min
Bit rate mode : Constant
Bit rate : 384 kb/s
Channel(s) : 6 channels
Channel layout : L R C LFE Ls Rs
Sampling rate : 48.0 kHz
Frame rate : 31.250 FPS (1536 SPF)
Bit depth : 16 bits
Compression mode : Lossy
Stream size : 340 MiB (13%)
Language : Russian
Service kind : Complete Main
Default : No
Forced : No
Audio #3
ID : 4
Format : AAC LC SBR
Format/Info : Advanced Audio Codec Low Complexity with Spectral Band Replication
Commercial name : HE-AAC
Format settings : Explicit
Codec ID : A_AAC-2
Duration : 2 h 3 min
Bit rate : 288 kb/s
Channel(s) : 8 channels
Channel layout : C L R Ls Rs Lb Rb LFE
Sampling rate : 48.0 kHz
Frame rate : 23.438 FPS (2048 SPF)
Compression mode : Lossy
Delay relative to video : 31 ms
Stream size : 257 MiB (10%)
Language : English
Default : No
Forced : No
Text #1
ID : 5
Format : UTF-8
Codec ID : S_TEXT/UTF8
Codec ID/Info : UTF-8 Plain Text
Duration : 1 h 55 min
Bit rate : 1 b/s
Count of elements : 17
Stream size : 937 Bytes (0%)
Title : Forced
Language : Russian
Default : No
Forced : Yes
Text #2
ID : 6
Format : UTF-8
Codec ID : S_TEXT/UTF8
Codec ID/Info : UTF-8 Plain Text
Duration : 2 h 2 min
Bit rate : 65 b/s
Count of elements : 1314
Stream size : 58.8 KiB (0%)
Title : Full
Language : Russian
Default : No
Forced : No
Text #3
ID : 7
Format : UTF-8
Codec ID : S_TEXT/UTF8
Codec ID/Info : UTF-8 Plain Text
Duration : 2 h 2 min
Bit rate : 77 b/s
Count of elements : 1637
Stream size : 69.2 KiB (0%)
Title : SDH
Language : Russian
Default : No
Forced : No
Text #4
ID : 8
Format : UTF-8
Codec ID : S_TEXT/UTF8
Codec ID/Info : UTF-8 Plain Text
Duration : 1 h 53 min
Bit rate : 47 b/s
Count of elements : 1425
Stream size : 39.8 KiB (0%)
Title : ENG
Language : English
Default : Yes
Forced : No
Text #5
ID : 9
Format : UTF-8
Codec ID : S_TEXT/UTF8
Codec ID/Info : UTF-8 Plain Text
Duration : 2 h 2 min
Bit rate : 50 b/s
Count of elements : 1668
Stream size : 45.1 KiB (0%)
Title : ENG SDH
Language : English
Default : No
Forced : No
Menu
00:00:00.000 : en:00:00:00.000
00:06:52.120 : en:00:06:52.120
00:14:07.889 : en:00:14:07.889
00:23:18.272 : en:00:23:18.272
00:29:38.026 : en:00:29:38.026
00:35:07.772 : en:00:35:07.772
00:44:08.437 : en:00:44:08.437
00:50:43.499 : en:00:50:43.499
00:56:18.625 : en:00:56:18.625
01:03:02.821 : en:01:03:02.821
01:11:17.398 : en:01:11:17.398
01:17:49.164 : en:01:17:49.164
01:27:03.051 : en:01:27:03.051
01:33:22.430 : en:01:33:22.430
01:40:51.796 : en:01:40:51.796
01:46:25.087 : en:01:46:25.087
01:52:49.888 : en:01:52:49.888

.torrent yuklash

Yuqori tezlikda va bepul ko‘chirish!

Qanday yuklab olinadi? · Torrent nima o‘zi? · Reyting va cheklovlar



So‘ngi marta tahrirlandi: Soft-Release (2019-07-03 08:01), Jami tahrirlangan 1 marta
Profil ShX

Soft-Release ®

Jins:
Yigit
Staj:
1 yil 8 oy
Xabarlar:
845

Qayerdan: Kattakurgan

Taqiq:

Ushbu Reliz Zamonaviy x265 HEVC Kodek Formatda Tayyorlandi! Ajoyib HD Tiniq Sifatda HEVC 10bit Rang MKV Formatda Va Albatta Kichik Hajmda Yuklab Oling Tomosha Qiling Zavqlaning.

Mavzu yaratish 02-Iyul-2019 18:14 (7 daqiqa o‘tgach)

Iqitibos

Profil ShX

Lock

Jins:
Yigit
Staj:
1 yil 2 oy
Xabarlar:
49

Qayerdan: Namangan

Taqiq:

Супер

Mavzu yaratish 03-Iyul-2019 08:57 (14 soat o‘tgach)

Iqitibos

Profil ShX

Soft-Release ®

Jins:
Yigit
Staj:
1 yil 8 oy
Xabarlar:
845

Qayerdan: Kattakurgan

Taqiq:

8438Супер
Lock, Rahmat Bularni Hammasi Sizlar Uchun!

Mavzu yaratish 03-Iyul-2019 09:45 (47 daqiqa o‘tgach)

Iqitibos

Profil ShX

Daymos

Jins:
Yigit
Staj:
1 yil 7 oy
Xabarlar:
11

Qayerdan: Navoiy

Taqiq:

Soft-Release, Сиз мободо NuRKHoNoFF: эмасмисиз?)

Mavzu yaratish 04-Iyul-2019 08:57 (23 soat o‘tgach)

Iqitibos

Profil ShX

Soft-Release ®

Jins:
Yigit
Staj:
1 yil 8 oy
Xabarlar:
845

Qayerdan: Kattakurgan

Taqiq:

8449Soft-Release, Сиз мободо NuRKHoNoFF: эмасмисиз?)
Daymos, Ha Huddi O'zi _Deimos_ Assalom Aleykum Xayli Kun!

Mavzu yaratish 04-Iyul-2019 12:52 (3 soat o‘tgach)

Iqitibos

Profil ShX

-ARTUR-

Jins:
Yigit
Staj:
1 yil 1 oy
Xabarlar:
1
Taqiq:

Soft-Release, ну ты даёшь) как вы так всё успеваете? ) у вас есть помощники?

Mavzu yaratish 06-Iyul-2019 22:16 (2 kun 9 soat o‘tgach)

Iqitibos

Profil ShX

Soft-Release ®

Jins:
Yigit
Staj:
1 yil 8 oy
Xabarlar:
845

Qayerdan: Kattakurgan

Taqiq:

8469Soft-Release, ну ты даёшь) как вы так всё успеваете? ) у вас есть помощники?
-ARTUR-, Все легко я сижу 24 чыса на компе ag

Mavzu yaratish 07-Iyul-2019 01:25 (3 soat o‘tgach)

Iqitibos

Profil ShX
Xabarlarni ko‘rsatish:    

Hozirgi vaqt: 09-Dek 12:57

Vaqtlar farqi: UTC + 5



Siz mavzu yaratishingiz mumkin emas
Siz xabarlarga javob qaytarishingiz mumkin emas
Siz o‘z xabarlaringizni tahrirlashingiz mumkin emas
Siz o‘z xabarlaringizni o‘chirishingiz mumkin emas
Siz so‘rovlarda ovoz berishingiz mumkin emas
Siz xabalarga fayllarni biriktirishingiz mumkin emas
Siz fayllarni ko‘chirishingiz mumkin emas