˂
˃
Tarqatmalar statistikasi
Yoʻq
 
     
 
 

Soft-Release ®

Jins:
Yigit
Staj:
1 yil 7 oy
Xabarlar:
836

Qayerdan: Kattakurgan

Taqiq:

O'rgimchak Odam: Uydan Uzoqda / Человек-паук: Вдали от дома / Spider-Man: Far From Home -Chiqqan Yili: 2019
Davlat: AQSH
Janr: Fantastika, jangari, komediya, sarguzasht
Davomiyligi: 01:54:19
Tarjima: Professional (Ko'p Ovozli) [KOLOBOK]-Rejissyor: Jon Vott-Rollarda: Tom Xoland, Zindeya, Engeuri Reys, Jon Favro, Jek Jillenhon, Samuel L. Jekson, Kobi Smolders, Merisa Tomey, Martin Sterr, Numan Edjer-Tavsif: Piter Parker va uning do'stlari yozgi ta'tilga Yevropaga borishadi. Biroq, do'stlarning qolganlari muvaffaqiyat qozonishning iloji yo'q - Piter, Nick Furyga qit'adagi tabiiy ofatlar va halokatga olib boradigan maxluqlarning sirini ochib berishga yordam berishga rozi bo'ladi.- -Sifat: CAMRip 720p [Reklama]
Format: MKV
Video: AVC, 3675 kb/s, 1280x560
Audio: AC3, 384 kb/s, 2 ch-

MediaInfo

General
Unique ID : 216443561552427605234888896034495110728 (0xA2D5837E54000423B9851CE606DD9E48)
Complete name : Spider-Man.Far.From.Home.2O19.Pk.TS.72op.UZTRACKER.ME.mkv
Format : Matroska
Format version : Version 2
File size : 3.24 GiB
Duration : 1 h 54 min
Overall bit rate mode : Variable
Overall bit rate : 4 061 kb/s
Encoded date : UTC 2019-07-01 10:34:52
Writing application : mkvmerge v8.3.0 ('Over the Horizon') 64bit
Writing library : libebml v1.3.1 + libmatroska v1.4.2
Video
ID : 1
Format : AVC
Format/Info : Advanced Video Codec
Format profile : High@L4.1
Format settings : CABAC / 4 Ref Frames
Format settings, CABAC : Yes
Format settings, ReFrames : 4 frames
Codec ID : V_MPEG4/ISO/AVC
Duration : 1 h 54 min
Bit rate mode : Variable
Bit rate : 3 675 kb/s
Maximum bit rate : 4 000 kb/s
Width : 1 280 pixels
Height : 560 pixels
Display aspect ratio : 2.25:1
Frame rate mode : Constant
Frame rate : 23.976 (24000/1001) FPS
Standard : Component
Color space : YUV
Chroma subsampling : 4:2:0
Bit depth : 8 bits
Scan type : Progressive
Bits/(Pixel*Frame) : 0.214
Stream size : 2.94 GiB (91%)
Default : Yes
Forced : No
Color range : Limited
Color primaries : BT.709
Transfer characteristics : BT.709
Matrix coefficients : BT.709
Audio
ID : 2
Format : AC-3
Format/Info : Audio Coding 3
Commercial name : Dolby Digital
Codec ID : A_AC3
Duration : 1 h 54 min
Bit rate mode : Constant
Bit rate : 384 kb/s
Channel(s) : 2 channels
Channel layout : L R
Sampling rate : 48.0 kHz
Frame rate : 31.250 FPS (1536 SPF)
Bit depth : 16 bits
Compression mode : Lossy
Stream size : 314 MiB (9%)
Service kind : Complete Main
Default : Yes
Forced : No

.torrent yuklash

Yuqori tezlikda va bepul ko‘chirish!

Qanday yuklab olinadi? · Torrent nima o‘zi? · Reyting va cheklovlar

Profil ShX

erkin.pardayev

Jins:
Yigit
Staj:
3 oy 23 kun
Xabarlar:
29

Qayerdan: Qarshi

Taqiq:

Har qanday kino juda qiziq bo'lsa xam TS, CamRIP formatida ko'rgandan ko'ra iTunes variantini kutganim yaxshiroq ))

Mavzu yaratish 02-Iyul-2019 17:00 (23 daqiqa o‘tgach)

Iqitibos

Profil ShX

Soft-Release ®

Jins:
Yigit
Staj:
1 yil 7 oy
Xabarlar:
836

Qayerdan: Kattakurgan

Taqiq:

8432Har qanday kino juda qiziq bo'lsa xam TS, CamRIP formatida ko'rgandan ko'ra iTunes variantini kutganim yaxshiroq ))
erkin.pardayev, A Endi Siz Kutasizda Siz Ko'rmasangiz Boshqalar Bor!

Mavzu yaratish 02-Iyul-2019 17:02 (1 daqiqa o‘tgach)

Iqitibos

Profil ShX
Forum Mavzu Muallif Hajm
Vaqtincha tarqatmalar O'rgimchak odam - Iblis nafasi/2018/PS4/GameFilm SobirR 2,42 GB
HEVC Kinofilmlar O'rgimchak Odam: Uydan Olisda / Человек-паук: Вдали от дома / Spider-Man: Far from Home (Jon Uotts /Джон Уоттс / Jon Watts) [2019, Fantastika, Jangari, Sarguzasht, BDRip 1080p HEVC] O... N.U.R.I.K.B.E.K 2,01 GB
HEVC Kinofilmlar O'rgimchak Odam: Uydan Olisda / Человек-паук: Вдали от дома / Spider-Man: Far from Home (Jon Uotts /Джон Уоттс / Jon Watts) [2019, Fantastika, Jangari, Sarguzasht, BDRip 720p HEVC] O... N.U.R.I.K.B.E.K 1,01 GB
Sifatsiz filmlar (CAMRip, TS, DVDScr) O'rgimchak Odam: Uydan Uzoqda / Человек-паук: Вдали от дома / Spider-Man: Far From Home (Jon Vott / Джон Уоттс / John Watts) [2019, Fantastika, jangari, komediya, sarguzasht, CAMRip, P] Rus... Soft-Release 1,46 GB
2012-2018 yil kinofilmlari O'rgimchak odam: Uyga qaytish / Человек-паук: Возвращение домой / Spider-Man: Homecoming (Jon Uotts / Jon Watts) [2017 y., fantastika, jangari, sarguzasht, BDRip] iTunes + Yoshlar + MY5 MRLG 1,71 GB
2012-2018 yil kinofilmlari O'rgimchak odam: Uyga Qaytish |Человек-паук: Возвращение домой | Spider-Man: Homecoming [2017, AQSH, Fantastika, jangari, sarguzasht, TVRip] Vampire_1987 706 MB
O`zbek tilidagi tarjima multfilmlar O'rgimchak odam: Yondosh olamlar / Человек-паук: Через вселенные / Spider-Man: Into the Spider-Verse (Bob Persichetti, Piter Remzi, Rodni Rotman / Bob Persichetti, Peter Ramsey, Rodney Rothman)... MRLG 1,57 GB
HEVC Multfilmlar O'rgimchak odam: Yondosh olamlar / Человек-паук: Через вселенные / Spider-Man: Into the Spider-Verse (Bob Persichetti, Piter Remzi, Rodni Rotman) [2018, multfilm, fantastika, jangari,... logan7272 1,82 GB
Xabarlarni ko‘rsatish:    

Hozirgi vaqt: 18-Okt 04:08

Vaqtlar farqi: UTC + 5



Siz mavzu yaratishingiz mumkin emas
Siz xabarlarga javob qaytarishingiz mumkin emas
Siz o‘z xabarlaringizni tahrirlashingiz mumkin emas
Siz o‘z xabarlaringizni o‘chirishingiz mumkin emas
Siz so‘rovlarda ovoz berishingiz mumkin emas
Siz xabalarga fayllarni biriktirishingiz mumkin emas
Siz fayllarni ko‘chirishingiz mumkin emas