˂
˃
Tarqatmalar statistikasi
Ko‘chirmoqdaman: [ 2 ]
Ko‘chirib bo‘ldim: [ 5 ]
 
     
 
 

erkin.pardayev ®

Jins:
Yigit
Staj:
3 oy 21 kun
Xabarlar:
29

Qayerdan: Qarshi

Taqiq:

Chernobl (Mini serial) | Чернобыль (мини-сериал) | Chernobyl
Chiqqan yili: 2019
Davlat: Великобритания, США
Janr: Драма, история
Davomiyligi: ~01:00:00
Rejissyor: Йохан Ренк / Johan Renck
Rollarda: Джаред Харрис, Стеллан Скарсгард, Эмили Уотсон, Джошуа Лис, Росс Армстронг, Фил Барантини, Джесси Бакли, Джеймс Космо, Дэниэл Стоунер, Карл Дейвис
Tavsif: История об аварии на Чернобыльской АЭС в 1986 году, эвакуации жителей Припяти и ликвидации последствий. «Чернобыль» драматизирует истинную историю одной из худших техногенных катастроф в истории и рассказывает о храбрых мужчинах и женщинах, которые пожертвовали собой, чтобы спасти Европу от невообразимой катастрофы.
Videoning sifati: WEBRip
Video format: AVI
Video: XviD, 704x352 (2,000), 23.976 кадров/сек, 1600 Кбит/сек
Audio: [RU] AC3, 48,0 kHz, 2 ch, 192 Кбит/сек | AlexFilm
Audio 2: [EN] AC3, 48,0 kHz, 2 ch, 192 Кбит/сек
Subtitrlar: Русские (Full [Amedia]), английские (SDH)

Qismlar

01. 1:23:45
02. Пожалуйста, сохраняйте спокойствие / Please Remain Calm
03. Откройся широко, о Земля! / Open Wide, O Earth
04. Счастье всего человечества / The Happiness of All Mankind
05. Вечная память

Media Info

Общее
Формат                                   : AVI
Формат/Информация                        : Audio Video Interleave
Размер файла                             : 860 Мбайт
Продолжительность                        : 1 ч. 0 м.
Общий поток                              : 1998 Кбит/сек
Программа кодирования                    : VirtualDubMod 1.5.10.3 | www.virtualdub-fr.org || (build 2550/release)
Библиотека кодирования                   : VirtualDubMod build 2550/release
Формат оригинала/Имя                     : TV-Serie
Видео
Идентификатор                            : 0
Формат                                   : MPEG-4 Visual
Профиль формата                          : Advanced Simple@L5
Настройки формата                        : BVOP1
Параметр BVOP формата                    : 1
Параметр QPel формата                    : Нет
Параметр GMC формата                     : Без точки перехода
Параметр матрицы формата                 : Default (MPEG)
Идентификатор кодека                     : XVID
Идентификатор кодека/Подсказка           : XviD
Продолжительность                        : 1 ч. 0 м.
Битрейт                                  : 1600 Кбит/сек
Ширина                                   : 704 пикселя
Высота                                   : 352 пикселя
Соотношение сторон                       : 2,000
Частота кадров                           : 23,976 (24000/1001) кадра/сек
Цветовое пространство                    : YUV
Субдискретизация насыщенности            : 4:2:0
Битовая глубина                          : 8 бит
Тип развёртки                            : Прогрессивная
Метод сжатия                             : С потерями
Бит/(Пиксели*Кадры)                      : 0.269
Размер потока                            : 689 Мбайт (80%)
Библиотека кодирования                   : XviD 67
Аудио #1
Идентификатор                            : 1
Формат                                   : AC-3
Формат/Информация                        : Audio Coding 3
Коммерческое название                    : Dolby Digital
Идентификатор кодека                     : 2000
Продолжительность                        : 1 ч. 0 м.
Вид битрейта                             : Постоянный
Битрейт                                  : 192 Кбит/сек
Каналы                                   : 2 канала
ChannelLayout                            : L R
Частота                                  : 48,0 КГц
Частота кадров                           : 31,250 кадров/сек (1536 SPF)
Битовая глубина                          : 16 бит
Метод сжатия                             : С потерями
Размер потока                            : 82,7 Мбайт (10%)
Выравнивание                             : Разделение по промежуткам
Продолжительность промежутка             : 42  мс. (1,00 видеокадр)
Время предзагрузки промежутка            : 500  мс.
ServiceKind/String                       : Complete Main
Аудио #2
Идентификатор                            : 2
Формат                                   : AC-3
Формат/Информация                        : Audio Coding 3
Коммерческое название                    : Dolby Digital
Идентификатор кодека                     : 2000
Продолжительность                        : 1 ч. 0 м.
Вид битрейта                             : Постоянный
Битрейт                                  : 192 Кбит/сек
Каналы                                   : 2 канала
ChannelLayout                            : L R
Частота                                  : 48,0 КГц
Частота кадров                           : 31,250 кадров/сек (1536 SPF)
Битовая глубина                          : 16 бит
Метод сжатия                             : С потерями
Размер потока                            : 82,7 Мбайт (10%)
Выравнивание                             : Разделение по промежуткам
Продолжительность промежутка             : 42  мс. (1,00 видеокадр)
Время предзагрузки промежутка            : 500  мс.
ServiceKind/String                       : Complete Main

Lavhalar

.torrent yuklash

Yuqori tezlikda va bepul ko‘chirish!

Qanday yuklab olinadi? · Torrent nima o‘zi? · Reyting va cheklovlar

Profil ShX

SirojN1

Jins:
Yigit
Staj:
1 yil 5 oy
Xabarlar:
3
Taqiq:

O'zbek tilida emasmi?

Mavzu yaratish 23-Sen-2019 10:37 (2 oy 29 kun o‘tgach)

Iqitibos

Profil ShX

erkin.pardayev ®

Jins:
Yigit
Staj:
3 oy 21 kun
Xabarlar:
29

Qayerdan: Qarshi

Taqiq:

8742O'zbek tilida emasmi?
yo'q, bu serialni keyinchalik o'zbekchasi chiqdi lekin serial endi chiqqanda ruschasini reliz qilgan edim

Mavzu yaratish 24-Sen-2019 12:13 (1 kun 1 soat o‘tgach)

Iqitibos

Profil ShX
Xabarlarni ko‘rsatish:    

Hozirgi vaqt: 15-Okt 19:52

Vaqtlar farqi: UTC + 5



Siz mavzu yaratishingiz mumkin emas
Siz xabarlarga javob qaytarishingiz mumkin emas
Siz o‘z xabarlaringizni tahrirlashingiz mumkin emas
Siz o‘z xabarlaringizni o‘chirishingiz mumkin emas
Siz so‘rovlarda ovoz berishingiz mumkin emas
Siz xabalarga fayllarni biriktirishingiz mumkin emas
Siz fayllarni ko‘chirishingiz mumkin emas