˂
˃
Tarqatmalar statistikasi
Ko‘chirmoqdaman: [ 6 ]
Ko‘chirib bo‘ldim: [ 48 ]
 
     
 
 

Gr@nd ®

Jins:
Yigit
Staj:
2 yil
Xabarlar:
170

Qayerdan: Jizzax Forish

Taqiq:

MUMBAY MEHMONXONASI | Отель Мумбаи: Противостояние | Hotel Mumbai- -Chiqqan yili: 2018
Davlat: AQSH, Avstraliya
Janr: Jangari, Trillеr, Drama, Tarixiy
Davomiyligi: 02:02:53
Tarjima: [MY5] telekanali dublyaji O'zbek tilida-Rejissyor: Anthony Maras-Rollarda: Armi Xammеr, Djеyson Ayzеks, Nazanin Boniadi, Dеv Patеl, Natasha Lyu Borditstso, Amandip Singx, Suxail Nayar, Manodj Mеra, Dinеsh Kumar, Amriptal Singx-Tavsif: 2008 yil noyabr oyining oxirida Mumbaydagi Taj Mahal Palace mehmonxonasida haqiqiy voqealarga asoslangan filmning voqealari. Shahardagi eng hashamatli mehmonxonalardan birida odatiy muntazam ravishda kundan boshlanadi: xodimlar yangi mehmonlar, oshxonada oshpazlar ishlaydi va xonimlar toza xona. Ertalab, amerikalik Dovud, xotini Zahra, bola va uning to'yi bilan birga mehmonxona mehmonxonasida ro'yxatdan o'tadi, lekin ularning dam olishlari mehmonxonaga kirib, har kimni otishga kirishayotgan bir guruh terrorchilar tomonidan to'xtatiladi. Oshxona xodimlaridan biri ba'zi mehmonlarni olib kelish uchun harakat qiladi va Dovud bolani qutqarish uchun o'z xonasiga kirishga qaror qiladi. Ayni paytda, mahalliy politsiya zo'ravonlik oqimini to'xtatish uchun qo'lidan kelgan barcha ishni qilmoqda.
-Videoning sifati: BDRip
Video format: MKV-Video: AVC, 1920x808, 23.976 fps, 2500 kbps
Audio: AC3, 6 ch, 384 Kb/s | RUS
Audio: MPEG Audio Layer 3 44100Hz stereo 128 Kb/s | UZB
-

Media Info

General
Unique ID : 218557933273910299562971492394800793332 (0xA46CBA115EFCDEF2910F50730A8046F4)
Format : Matroska
Format version : Version 4 / Version 2
File size : 2.59 GiB
Duration : 2h 2mn
Overall bit rate : 3 012 Kbps
Movie name : Xusan_Gr@nd
Encoded date : UTC 2019-06-23 17:07:21
Writing application : mkvmerge v6.8.0 ('Theme for Great Cities') 64bit built on Mar 2 2014 21:34:26
Writing library : libebml v1.3.0 + libmatroska v1.4.1
Video
ID : 1
Format : AVC
Format/Info : Advanced Video Codec
Format profile : High@L4.1
Format settings, CABAC : Yes
Format settings, ReFrames : 4 frames
Codec ID : V_MPEG4/ISO/AVC
Duration : 2h 2mn
Bit rate : 2 500 Kbps
Width : 1 920 pixels
Height : 808 pixels
Display aspect ratio : 2.40:1
Frame rate : 23.976 fps
Color space : YUV
Chroma subsampling : 4:2:0
Bit depth : 8 bits
Scan type : Progressive
Bits/(Pixel*Frame) : 0.067
Stream size : 2.09 GiB (81%)
Writing library : x264 core 152 r2851M ba24899
Encoding settings : cabac=1 / ref=4 / deblock=1:-1:-1 / analyse=0x3:0x113 / me=umh / subme=9 / psy=1 / psy_rd=1.00:0.15 / mixed_ref=1 / me_range=24 / chroma_me=1 / trellis=2 / 8x8dct=1 / cqm=0 / deadzone=21,11 / fast_pskip=1 / chroma_qp_offset=-3 / threads=32 / lookahead_threads=4 / sliced_threads=0 / nr=0 / decimate=1 / interlaced=0 / bluray_compat=0 / constrained_intra=0 / bframes=3 / b_pyramid=2 / b_adapt=2 / b_bias=0 / direct=3 / weightb=1 / open_gop=0 / weightp=2 / keyint=250 / keyint_min=25 / scenecut=40 / intra_refresh=0 / rc_lookahead=50 / rc=2pass / mbtree=1 / bitrate=2500 / ratetol=1.0 / qcomp=0.60 / qpmin=0 / qpmax=69 / qpstep=4 / cplxblur=20.0 / qblur=0.5 / vbv_maxrate=31250 / vbv_bufsize=31250 / nal_hrd=none / filler=0 / ip_ratio=1.40 / aq=3:1.00
Default : Yes
Forced : No
Audio #1
ID : 2
Format : AC-3
Format/Info : Audio Coding 3
Mode extension : CM (complete main)
Format settings, Endianness : Big
Codec ID : A_AC3
Duration : 2h 2mn
Bit rate mode : Constant
Bit rate : 384 Kbps
Channel(s) : 6 channels
Channel positions : Front: L C R, Side: L R, LFE
Sampling rate : 48.0 KHz
Bit depth : 16 bits
Compression mode : Lossy
Delay relative to video : -43ms
Stream size : 338 MiB (13%)
Language : Russian
Default : Yes
Forced : No
Audio #2
ID : 3
Format : MPEG Audio
Format version : Version 1
Format profile : Layer 3
Mode : Joint stereo
Mode extension : MS Stereo
Codec ID : A_MPEG/L3
Codec ID/Hint : MP3
Duration : 2h 2mn
Bit rate mode : Constant
Bit rate : 128 Kbps
Channel(s) : 2 channels
Sampling rate : 44.1 KHz
Compression mode : Lossy
Delay relative to video : -43ms
Stream size : 113 MiB (4%)
Title : Xusan_Gr@nd
Language : Uzbek
Default : No
Forced : No
.torrent yuklash

Yuqori tezlikda va bepul ko‘chirish!

Qanday yuklab olinadi? · Torrent nima o‘zi? · Reyting va cheklovlar

Profil ShX

Gr@nd ®

Jins:
Yigit
Staj:
2 yil
Xabarlar:
170

Qayerdan: Jizzax Forish

Taqiq:

O'zim ko'rdim judaxm yaxshi kino ekan xammaga ko'rishni tafsiya qilaman

Mavzu yaratish 23-Iyun-2019 23:15 (2 daqiqa o‘tgach)

Iqitibos

Profil ShX

Striker

Jins:
Yigit
Staj:
2 yil 1 oy
Xabarlar:
54
Taqiq:

Ha yaxshi ishlangan

Mavzu yaratish 24-Iyun-2019 19:36 (20 soat o‘tgach)

Iqitibos

Profil ShX

behaking

Jins:
Yigit
Staj:
1 yil 2 oy
Xabarlar:
9
Taqiq:

juda ta'sirli kino ekan

Mavzu yaratish 28-Iyun-2019 13:10 (3 kun o‘tgach)

Iqitibos

Profil ShX
Xabarlarni ko‘rsatish:    

Hozirgi vaqt: 15-Okt 18:38

Vaqtlar farqi: UTC + 5



Siz mavzu yaratishingiz mumkin emas
Siz xabarlarga javob qaytarishingiz mumkin emas
Siz o‘z xabarlaringizni tahrirlashingiz mumkin emas
Siz o‘z xabarlaringizni o‘chirishingiz mumkin emas
Siz so‘rovlarda ovoz berishingiz mumkin emas
Siz xabalarga fayllarni biriktirishingiz mumkin emas
Siz fayllarni ko‘chirishingiz mumkin emas