˂
˃
Tarqatmalar statistikasi
Ko‘chirmoqdaman: [ 6 ]
Ko‘chirib bo‘ldim: [ 47 ]
 
     
 
 

AxeL ®

Jins:
Yigit
Staj:
1 yil 7 oy
Xabarlar:
756

Qayerdan: Gronland, Norway

Taqiq:

Dambo / Дамбо / Dumbo- Chiqqan yili: 2019
Davlat: AQSH
Janr: fentezi, oilaviy
Davomiyligi: 01:51:57
Tarjima: Professional ko'p ovozli [MY5]-Rejissyor: Tim Byorton / Тим Бёртон
Rollarda: Kolin Farrel, Maykl Kiton, Denni DeVito, Eva Grin, Alan Arkin, Niko Parker, Finli Xobbins, Roshan Set, Lars Aydinger,...-Tavsif: Цирковой импресарио Макс Медичи назначает бывшую звезду цирка Холта Фэрриера и его детей Милли и Джо опекунами новорожденного слонёнка, чьи невероятно большие уши сразу становятся предметом для постоянных шуток и насмешек коллег Холта по цеху. Внезапно узнав, что Дамбо умеет летать, владелец цирка решает нажиться на необычных способностях слонёнка. К делу подключается энергичный предприниматель В. А. Вэндевер, который решает сделать из малыша Дамбо главную звезду своего нового грандиозного развлекательного предприятия «Сказочная страна».-Sifat: Blu-Ray 720p
Format: MKV
Video: MPEG4 Video (H264) 1280x694 1 050 Kbps
Audio №1: AAC 48000Hz stereo 132 Kbps Ingliz tilida
Audio №2: MP3 44100Hz stereo 192kbps O'zbek tilida-

Media Info

General
Unique ID                      : 111678498759067346070851102690607935933 (0x54047F19FF2FDE4DC17A48D369A8B1BD)
Complete name                  : D:\Films\Tarjima\HD Video\Dambo.2019.720p.BluRay.x264-[UTN]AxeL.mkv
Format                         : Matroska
Format version                 : Version 4 / Version 2
File size                      : 1.08 GiB
Duration                       : 1h 51mn
Overall bit rate               : 1 379 Kbps
Encoded date                   : UTC 2019-06-20 07:59:50
Writing application            : mkvmerge v22.0.0 ('At The End Of The World') 64-bit
Writing library                : libebml v1.3.5 + libmatroska v1.4.8
Video
ID                             : 1
Format                         : AVC
Format/Info                    : Advanced Video Codec
Format profile                 : High@L4.1
Format settings, CABAC         : Yes
Format settings, ReFrames      : 4 frames
Codec ID                       : V_MPEG4/ISO/AVC
Duration                       : 1h 51mn
Bit rate                       : 1 050 Kbps
Width                          : 1 280 pixels
Height                         : 694 pixels
Display aspect ratio           : 1.85:1
Frame rate mode                : Constant
Frame rate                     : 23.976 (24000/1001) fps
Color space                    : YUV
Chroma subsampling             : 4:2:0
Bit depth                      : 8 bits
Scan type                      : Progressive
Bits/(Pixel*Frame)             : 0.049
Stream size                    : 841 MiB (76%)
Writing library                : x264 core 157
Encoding settings              : cabac=1 / ref=4 / deblock=1:-1:-1 / analyse=0x3:0x133 / me=umh / subme=9 / psy=1 / psy_rd=1.00:0.15 / mixed_ref=1 / me_range=24 / chroma_me=1 / trellis=2 / 8x8dct=1 / cqm=0 / deadzone=21,11 / fast_pskip=0 / chroma_qp_offset=-3 / threads=18 / lookahead_threads=1 / sliced_threads=0 / nr=0 / decimate=1 / interlaced=0 / bluray_compat=0 / constrained_intra=0 / bframes=3 / b_pyramid=2 / b_adapt=2 / b_bias=0 / direct=3 / weightb=1 / open_gop=0 / weightp=2 / keyint=250 / keyint_min=23 / scenecut=40 / intra_refresh=0 / rc_lookahead=60 / rc=2pass / mbtree=1 / bitrate=1050 / ratetol=1.0 / qcomp=0.60 / qpmin=0 / qpmax=69 / qpstep=4 / cplxblur=20.0 / qblur=0.5 / vbv_maxrate=31250 / vbv_bufsize=31250 / nal_hrd=none / filler=0 / ip_ratio=1.40 / aq=1:1.00
Default                        : Yes
Forced                         : No
Audio #1
ID                             : 2
Format                         : AAC
Format/Info                    : Advanced Audio Codec
Format profile                 : LC
Codec ID                       : A_AAC
Duration                       : 1h 51mn
Bit rate                       : 132 Kbps
Channel(s)                     : 2 channels
Channel positions              : Front: L R
Sampling rate                  : 48.0 KHz
Frame rate                     : 46.875 fps (1024 spf)
Compression mode               : Lossy
Delay relative to video        : -43ms
Stream size                    : 107 MiB (10%)
Title                          : Ingliz tilida (Original)
Language                       : English
Default                        : Yes
Forced                         : No
Audio #2
ID                             : 3
Format                         : MPEG Audio
Format version                 : Version 1
Format profile                 : Layer 3
Mode                           : Joint stereo
Mode extension                 : MS Stereo
Codec ID                       : A_MPEG/L3
Codec ID/Hint                  : MP3
Duration                       : 1h 51mn
Bit rate mode                  : Constant
Bit rate                       : 192 Kbps
Channel(s)                     : 2 channels
Sampling rate                  : 44.1 KHz
Frame rate                     : 38.281 fps (1152 spf)
Compression mode               : Lossy
Delay relative to video        : -43ms
Stream size                    : 154 MiB (14%)
Title                          : O'zbek tilida (DUB) AxeL
Writing library                : LAME3.97
Language                       : Uzbek
Default                        : No
Forced                         : No
.torrent yuklash

Yuqori tezlikda va bepul ko‘chirish!

Qanday yuklab olinadi? · Torrent nima o‘zi? · Reyting va cheklovlar

Profil ShX
Xabarlarni ko‘rsatish:    

Hozirgi vaqt: 22-Okt 08:32

Vaqtlar farqi: UTC + 5



Siz mavzu yaratishingiz mumkin emas
Siz xabarlarga javob qaytarishingiz mumkin emas
Siz o‘z xabarlaringizni tahrirlashingiz mumkin emas
Siz o‘z xabarlaringizni o‘chirishingiz mumkin emas
Siz so‘rovlarda ovoz berishingiz mumkin emas
Siz xabalarga fayllarni biriktirishingiz mumkin emas
Siz fayllarni ko‘chirishingiz mumkin emas