˂
˃
Tarqatmalar statistikasi
Ko‘chirmoqdaman: [ 3 ]
Ko‘chirib bo‘ldim: [ 5 ]
 
     
 
 

azizbek ®

Jins:
Yigit
Staj:
1 yil 11 oy
Xabarlar:
169

Qayerdan: Surxondaryo

Taqiq:

-Adelning Sarguzashtlari
Необычайные приключения Адель
Les aventures extraordinaires d'Adèle Blanc-Sec
- Chiqqan yili: 2010
Davlat: Fransiya
Janr: komediya, detektiv, sarguzasht
Davomiyligi: 01:41:54
Tarjima: Professional (Yoshlar telekanali) o'zbek tilida-Rejissyor: Luk Besson / Luc Besson
Rollarda: Jaki Narselsyan, Jan-Pol Ruv, Jerar Shellu, Jil Lelush, Lor de Klermon-Tonner, Luis Berguan, Metyu Alamrik, Nikolas Jiro, Serj Bagdasaryan, Filip Noan-Tavsif:
1912 yil. Dovyurak yosh jurnalist Adel Blank-Seek maqsadga erishish uchun hamma narsani qilishga tayyor, hatto buning uchun u barcha shakl va o'lchovlarda mumiyolarga duch kelsa ham Misrga borishga tayyor. Ayni paytda Parijda vahima hayajonda. Tabiatshunoslik muzeyida 136 million yillik yosh pterodaktil tuxumlari yoshni to'ldirib, shahar aholisini qo'rqitmoqdalar. Ammo xavf, Adelni eng dahshatli sarguzashtlarning javhariga tashlashga tayyor bo'lganida bezovta qilmaydi.-Videoning sifati: BDRip
Video format: MP4-Video:AVC, 1920x816 23.976fps 9985kbps
Audio:MP3, 48000Hz stereo 106kbps

Media Info

General
Complete name : E:\kino\uztracker\adel 2010_1080p.mp4
Format : MPEG-4
Format profile : Base Media
Codec ID : isom (isom/iso2/avc1/mp41)
File size : 7.54 GiB
Duration : 1 h 46 min
Overall bit rate : 10.1 Mb/s
Movie name : Les aventures extraordinaires d'Adele Blanc-Sec_Rip1080_HDReactor.org
Encoded date : UTC 2019-06-15 13:47:32
Tagged date : UTC 2019-06-15 13:47:32
Writing application : Lavf57.81.100
Video
ID : 1
Format : AVC
Format/Info : Advanced Video Codec
Format profile : High@L4.1
Format settings : CABAC / 4 Ref Frames
Format settings, CABAC : Yes
Format settings, ReFrames : 4 frames
Codec ID : avc1
Codec ID/Info : Advanced Video Coding
Duration : 1 h 46 min
Bit rate : 10.0 Mb/s
Width : 1 920 pixels
Height : 816 pixels
Display aspect ratio : 2.35:1
Frame rate mode : Variable
Frame rate : 23.976 FPS
Minimum frame rate : 23.564 FPS
Maximum frame rate : 24.390 FPS
Color space : YUV
Chroma subsampling : 4:2:0
Bit depth : 8 bits
Scan type : Progressive
Bits/(Pixel*Frame) : 0.266
Stream size : 7.46 GiB (99%)
Writing library : x264 core 98 r1649 20cbe10
Encoding settings : cabac=1 / ref=3 / deblock=1:-1:-1 / analyse=0x3:0x113 / me=umh / subme=10 / psy=1 / psy_rd=1.00:0.15 / mixed_ref=1 / me_range=32 / chroma_me=1 / trellis=2 / 8x8dct=1 / cqm=0 / deadzone=21,11 / fast_pskip=0 / chroma_qp_offset=-3 / threads=6 / sliced_threads=0 / nr=0 / decimate=1 / interlaced=0 / constrained_intra=0 / bframes=7 / b_pyramid=2 / b_adapt=2 / b_bias=0 / direct=1 / weightb=1 / weightp=2 / keyint=250 / keyint_min=25 / scenecut=40 / intra_refresh=0 / rc=2pass / mbtree=0 / bitrate=10008 / ratetol=1.0 / qcomp=0.60 / qpmin=10 / qpmax=51 / qpstep=4 / cplxblur=20.0 / qblur=0.5 / ip_ratio=1.40 / pb_ratio=1.30 / aq=1:0.80
Language : English
Encoded date : UTC 2019-06-15 13:47:32
Tagged date : UTC 2019-06-15 13:47:32
Menus : 3
Codec configuration box : avcC
Audio
ID : 2
Format : MPEG Audio
Format version : Version 1
Format profile : Layer 3
Format settings : Joint stereo
Codec ID : mp4a-6B
Duration : 1 h 46 min
Bit rate mode : Constant
Bit rate : 32.0 kb/s
Nominal bit rate : 106 kb/s
Channel(s) : 2 channels
Sampling rate : 48.0 kHz
Compression mode : Lossy
Stream size : 81.4 MiB (1%)
Language : Uzbek
Default : Yes
Alternate group : 1
Encoded date : UTC 2019-06-15 13:47:32
Tagged date : UTC 2019-06-15 13:47:32
Menus : 3
Menu #1
ID : 3
Codec ID : text
Duration : 1 h 46 min
Language : English
Encoded date : UTC 2019-06-15 13:47:32
Tagged date : UTC 2019-06-15 13:47:32
Bit rate mode : CBR
Menu For : 1,2
00:00:00.000 : 00:00:00.000
00:06:35.812 : 00:06:35.812
00:10:38.179 : 00:10:38.179
00:19:17.740 : 00:19:17.740
00:25:12.970 : 00:25:12.970
00:31:58.792 : 00:31:58.792
00:36:30.814 : 00:36:30.814
00:39:39.836 : 00:39:39.836
00:52:06.582 : 00:52:06.582
01:02:36.836 : 01:02:36.836
01:06:07.255 : 01:06:07.255
01:08:16.634 : 01:08:16.634
01:18:29.622 : 01:18:29.622
01:22:17.558 : 01:22:17.558
01:35:58.378 : 01:35:58.378
01:37:41.147 : 01:37:41.147
Menu #2
00:00:00.000 : 00:00:00.000
00:06:35.812 : 00:06:35.812
00:10:38.179 : 00:10:38.179
00:19:17.740 : 00:19:17.740
00:25:12.970 : 00:25:12.970
00:31:58.792 : 00:31:58.792
00:36:30.814 : 00:36:30.814
00:39:39.836 : 00:39:39.836
00:52:06.582 : 00:52:06.582
01:02:36.836 : 01:02:36.836
01:06:07.255 : 01:06:07.255
01:08:16.634 : 01:08:16.634
01:18:29.622 : 01:18:29.622
01:22:17.558 : 01:22:17.558
01:35:58.378 : 01:35:58.378
01:37:41.147 : 01:37:41.147
.torrent yuklash

Yuqori tezlikda va bepul ko‘chirish!

Qanday yuklab olinadi? · Torrent nima o‘zi? · Reyting va cheklovlar

Profil ShX
Xabarlarni ko‘rsatish:    

Hozirgi vaqt: 18-Okt 04:46

Vaqtlar farqi: UTC + 5



Siz mavzu yaratishingiz mumkin emas
Siz xabarlarga javob qaytarishingiz mumkin emas
Siz o‘z xabarlaringizni tahrirlashingiz mumkin emas
Siz o‘z xabarlaringizni o‘chirishingiz mumkin emas
Siz so‘rovlarda ovoz berishingiz mumkin emas
Siz xabalarga fayllarni biriktirishingiz mumkin emas
Siz fayllarni ko‘chirishingiz mumkin emas