˂
˃
Tarqatmalar statistikasi
Yoʻq
 
     
 
 

azizbek ®

Jins:
Yigit
Staj:
1 yil 10 oy
Xabarlar:
169

Qayerdan: Surxondaryo

Taqiq:

Ikki olam aro | Между небом и землей | Just like heaven
Chiqqan yili: 2005
Davlat: Aqsh
Janr: komediya, melodrama, hayoliy
Davomiyligi: 1:34:46
Tarjima: Professional (dublyaj qilingan)
Rejissyor: Марк Уотерс
Rollarda: Риз Уизерспун, Марк Руффало, Донал Лог, Дина Спайби, Бен Шенкман, Джон Хидер, Ивана Миличевич, Розалинд Чао, Кэролайн Аарон, Рон Кэнада
Tavsif: Вселившись в арендованную квартиру в Сан-Франциско и начав наводить там порядок, Дэвид неожиданно встречает в своем новом жилище привлекательную молодую женщину Элизабет, которая уверяет его, что именно она является хозяйкой этих апартаментов. Когда же Дэвид начинает склоняться к мысли, что произошло какое-то недоразумение, Элизабет исчезает так же внезапно и загадочно, как и появилась. Замена замков не останавливает красотку: ее таинственные появления и исчезновения продолжают вносить сумятицу в жизнь Дэвида. Убедившись в том, что она привидение, Дэвид старается помочь ей навсегда остаться в потустороннем мире. Однако, открыв в себе невероятные возможности — например, способность проходить сквозь стены, — Элизабет начинает убеждать себя в том, что она каким-то образом еще жива и поэтому не собирается перебираться на тот свет насовсем. По мере того как оба пытаются выяснить истинную причину происходящего, Дэвид и Элизабет влюбляются друг в друга. Однако перспективы их совместной жизни становятся все более и более призрачными…
Videoning sifati: BDRip
Video format: MP4
Video: AVC, 23.976 FPS, 1914x1076 pixels, 5173 kb/s
Audio: MP3, 128 kb/s, 2 channels, 48.0 kHz

Media Info

General
Complete name : E:\kino\uztracker\just_like_heaven_2005_1080p.mp4
Format : MPEG-4
Format profile : Base Media
Codec ID : isom (isom/iso2/avc1/mp41)
File size : 3.51 GiB
Duration : 1 h 34 min
Overall bit rate : 5 307 kb/s
Movie name : Just Like Heaven (2005)
Encoded date : UTC 2019-06-18 04:54:31
Tagged date : UTC 2019-06-18 04:54:31
Writing application : Lavf57.81.100
Video
ID : 1
Format : AVC
Format/Info : Advanced Video Codec
Format profile : High@L4
Format settings : CABAC / 4 Ref Frames
Format settings, CABAC : Yes
Format settings, ReFrames : 4 frames
Codec ID : avc1
Codec ID/Info : Advanced Video Coding
Duration : 1 h 34 min
Bit rate : 5 173 kb/s
Width : 1 914 pixels
Height : 1 076 pixels
Display aspect ratio : 16:9
Frame rate mode : Variable
Frame rate : 23.976 (23976/1000) FPS
Minimum frame rate : 23.810 FPS
Maximum frame rate : 24.390 FPS
Color space : YUV
Chroma subsampling : 4:2:0
Bit depth : 8 bits
Scan type : Progressive
Bits/(Pixel*Frame) : 0.105
Stream size : 3.42 GiB (97%)
Language : English
Encoded date : UTC 2019-06-18 04:54:31
Tagged date : UTC 2019-06-18 04:54:31
Color range : Limited
Color primaries : BT.709
Transfer characteristics : BT.709
Matrix coefficients : BT.709
Menus : 3
Codec configuration box : avcC
Audio
ID : 2
Format : MPEG Audio
Format version : Version 1
Format profile : Layer 3
Format settings : Joint stereo / MS Stereo
Codec ID : mp4a-6B
Duration : 1 h 34 min
Bit rate mode : Constant
Bit rate : 128 kb/s
Channel(s) : 2 channels
Sampling rate : 48.0 kHz
Compression mode : Lossy
Stream size : 86.8 MiB (2%)
Language : Uzbek
Default : Yes
Alternate group : 1
Encoded date : UTC 2019-06-18 04:54:31
Tagged date : UTC 2019-06-18 04:54:31
Menus : 3
Menu #1
ID : 3
Codec ID : text
Duration : 1 h 34 min
Language : English
Encoded date : UTC 2019-06-18 04:54:31
Tagged date : UTC 2019-06-18 04:54:31
Menu For : 1,2
00:00:00.000 : 1. At the Hospital
00:07:55.000 : 2. David Meets Elizabeth
00:13:55.000 : 3. Seeing Someone
00:19:31.000 : 4. Bookstore
00:29:37.000 : 5. At the Bar
00:33:17.000 : 6. Meet the Neighbors
00:38:26.000 : 7. "I'm a Doctor!"
00:42:08.000 : 8. St. Matthews
00:52:20.000 : 9. Katrina's Visit
00:57:36.000 : 10. On the Roof
01:00:37.000 : 11. David's Garden
01:07:26.000 : 12. Elizabeth's Last Night
01:14:57.000 : 13. An Idea
01:18:50.000 : 14. Stealing the Body
01:25:55.000 : 15. Elizabeth Comes Home
01:30:20.000 : 16. End Credits
Bit rate mode : VBR
Menu #2
00:00:00.000 : 1. At the Hospital
00:07:55.000 : 2. David Meets Elizabeth
00:13:55.000 : 3. Seeing Someone
00:19:31.000 : 4. Bookstore
00:29:37.000 : 5. At the Bar
00:33:17.000 : 6. Meet the Neighbors
00:38:26.000 : 7. "I'm a Doctor!"
00:42:08.000 : 8. St. Matthews
00:52:20.000 : 9. Katrina's Visit
00:57:36.000 : 10. On the Roof
01:00:37.000 : 11. David's Garden
01:07:26.000 : 12. Elizabeth's Last Night
01:14:57.000 : 13. An Idea
01:18:50.000 : 14. Stealing the Body
01:25:55.000 : 15. Elizabeth Comes Home
01:30:20.000 : 16. End Credits

Lavhalar

1
.torrent yuklash

Yuqori tezlikda va bepul ko‘chirish!

Qanday yuklab olinadi? · Torrent nima o‘zi? · Reyting va cheklovlar

Profil ShX
Xabarlarni ko‘rsatish:    

Hozirgi vaqt: 15-Okt 18:33

Vaqtlar farqi: UTC + 5



Siz mavzu yaratishingiz mumkin emas
Siz xabarlarga javob qaytarishingiz mumkin emas
Siz o‘z xabarlaringizni tahrirlashingiz mumkin emas
Siz o‘z xabarlaringizni o‘chirishingiz mumkin emas
Siz so‘rovlarda ovoz berishingiz mumkin emas
Siz xabalarga fayllarni biriktirishingiz mumkin emas
Siz fayllarni ko‘chirishingiz mumkin emas