˂
˃
Tarqatmalar statistikasi
Ko‘chirmoqdaman: [ 2 ]
Ko‘chirib bo‘ldim: [ 4 ]
 
     
 
 

TheLeon ®

Jins:
Ko‘rsatilmagan
Staj:
1 yil 2 oy
Xabarlar:
3
Taqiq:

Iqtidor | Одарённая | Gifted
Chiqqan yili: 2017
Davlat: AQSH
Janr: Drama
Davomiyligi: 01:41:10
Tarjima: Professional (Ikki ovozli kadr ortidan)
Tarjima 2: Professional (dublyaj qilingan)
Tarjima 3: Professional (Ikki ovozli kadr ortidan)
Rejissyor: Mark Uebb / Marc Webb
Rollarda: Kris Evans, Mkenna Greys, Lindsey Dunkan
Tavsif: Frank Adler - Florida shaharining qirg'oqida yashaydi va o'zining yagona iste'dodli jiyani Merini o'z qo'lida katta qiladi. Bir qiz uchun sokin maktab hayotini rejalashtiradi. Evelin Adler o'z nevarasini matematik qobiliyatlari haqida bilib qolganida nevarasini o'ziga jalb qilish maqsadida o'g'li bilan tortishishgacha boradi.
Videoning sifati: BluRay 1080p
Video format: MKV
Video: AVC, 1920x800, 23.97fps, 14.2 Mb/s
Audio: MP3, 256 kb/s, 44.1 kHz, 2 channels, Uzbek Tilida, Sevimli TV
Audio 2: DTS, 768 kb/s, 6 channels, Rus Tilida
Audio 3: AC3, 768 kb/s, 6 channels, Rus Tilida
Audio 4: AC3, 768 kb/s, 6 channels, Ingliz Tilida
Subtitrlar: Ingliz va Rus tillarida

Media Info

General
Unique ID : 10499478134144467672679141195952361021 (0x7E6203D3438BDA811D7AEEBCD730E3D)
Complete name : D:\!_Movie\Gifted.2017.1080p.BluRay.x264.Uzb.Rus.Eng).mkv
Format : Matroska
Format version : Version 4 / Version 2
File size : 11.6 GiB
Duration : 1 h 41 min
Overall bit rate : 16.3 Mb/s
Movie name : Одарённая (2017)
Encoded date : UTC 2019-06-03 22:51:38
Writing application : mkvmerge v29.0.0 ('Like It Or Not') 64-bit
Writing library : libebml v1.3.6 + libmatroska v1.4.9
Video
ID : 1
Format : AVC
Format/Info : Advanced Video Codec
Format profile : High@L4.1
Format settings : CABAC / 5 Ref Frames
Format settings, CABAC : Yes
Format settings, ReFrames : 5 frames
Codec ID : V_MPEG4/ISO/AVC
Duration : 1 h 41 min
Bit rate : 14.2 Mb/s
Width : 1 920 pixels
Height : 800 pixels
Display aspect ratio : 2.40:1
Frame rate mode : Constant
Frame rate : 23.976 (24000/1001) FPS
Color space : YUV
Chroma subsampling : 4:2:0
Bit depth : 8 bits
Scan type : Progressive
Bits/(Pixel*Frame) : 0.387
Stream size : 10.1 GiB (87%)
Title : Gifted.2017.1080p.BluRay.x264.Rus.Eng
Writing library : x264 core 152 r2851 ba24899
Encoding settings : cabac=1 / ref=5 / deblock=1:-3:-3 / analyse=0x3:0x113 / me=umh / subme=10 / psy=1 / psy_rd=1.05:0.00 / mixed_ref=1 / me_range=32 / chroma_me=1 / trellis=2 / 8x8dct=1 / cqm=1 / deadzone=21,11 / fast_pskip=0 / chroma_qp_offset=-1 / threads=12 / lookahead_threads=2 / sliced_threads=0 / nr=0 / decimate=1 / interlaced=0 / bluray_compat=0 / constrained_intra=0 / bframes=8 / b_pyramid=2 / b_adapt=2 / b_bias=0 / direct=3 / weightb=1 / open_gop=0 / weightp=2 / keyint=230 / keyint_min=23 / scenecut=40 / intra_refresh=0 / rc_lookahead=40 / rc=crf / mbtree=0 / crf=16.3 / qcomp=0.65 / qpmin=10 / qpmax=69 / qpstep=4 / vbv_maxrate=62500 / vbv_bufsize=78125 / crf_max=0.0 / nal_hrd=none / filler=0 / ip_ratio=1.30 / pb_ratio=1.20 / aq=1:0.75
Language : English
Default : Yes
Forced : No
Audio #1
ID : 2
Format : MPEG Audio
Format version : Version 1
Format profile : Layer 3
Format settings : Joint stereo
Codec ID : A_MPEG/L3
Codec ID/Hint : MP3
Duration : 1 h 41 min
Bit rate mode : Constant
Bit rate : 256 kb/s
Channel(s) : 2 channels
Sampling rate : 44.1 kHz
Frame rate : 38.281 FPS (1152 SPF)
Compression mode : Lossy
Stream size : 185 MiB (2%)
Title : Lochin Media
Language : Uzbek
Default : Yes
Forced : No
Audio #2
ID : 3
Format : DTS
Format/Info : Digital Theater Systems
Codec ID : A_DTS
Duration : 1 h 41 min
Bit rate mode : Constant
Bit rate : 768 kb/s
Channel(s) : 6 channels
Channel positions : Front: L C R, Side: L R, LFE
Sampling rate : 48.0 kHz
Frame rate : 93.750 FPS (512 SPF)
Bit depth : 24 bits
Compression mode : Lossy
Stream size : 556 MiB (5%)
Title : Blu-ray EUR
Language : Russian
Default : No
Forced : No
Audio #3
ID : 4
Format : AC-3
Format/Info : Audio Coding 3
Codec ID : A_AC3
Duration : 1 h 41 min
Bit rate mode : Constant
Bit rate : 448 kb/s
Channel(s) : 6 channels
Channel positions : Front: L C R, Side: L R, LFE
Sampling rate : 48.0 kHz
Frame rate : 31.250 FPS (1536 SPF)
Bit depth : 16 bits
Compression mode : Lossy
Stream size : 324 MiB (3%)
Language : Russian
Service kind : Complete Main
Default : No
Forced : No
Audio #4
ID : 5
Format : AC-3
Format/Info : Audio Coding 3
Codec ID : A_AC3
Duration : 1 h 41 min
Bit rate mode : Constant
Bit rate : 640 kb/s
Channel(s) : 6 channels
Channel positions : Front: L C R, Side: L R, LFE
Sampling rate : 48.0 kHz
Frame rate : 31.250 FPS (1536 SPF)
Bit depth : 16 bits
Compression mode : Lossy
Stream size : 463 MiB (4%)
Language : English
Service kind : Complete Main
Default : No
Forced : No
Text #1
ID : 6
Format : UTF-8
Codec ID : S_TEXT/UTF8
Codec ID/Info : UTF-8 Plain Text
Duration : 1 h 40 min
Bit rate : 100 b/s
Count of elements : 1516
Stream size : 74.1 KiB (0%)
Title : iTunes
Language : Russian
Default : No
Forced : No
Text #2
ID : 7
Format : UTF-8
Codec ID : S_TEXT/UTF8
Codec ID/Info : UTF-8 Plain Text
Duration : 1 h 40 min
Bit rate : 66 b/s
Count of elements : 1751
Stream size : 48.5 KiB (0%)
Title : Full
Language : English
Default : No
Forced : No
Text #3
ID : 8
Format : UTF-8
Codec ID : S_TEXT/UTF8
Codec ID/Info : UTF-8 Plain Text
Duration : 1 h 40 min
Bit rate : 69 b/s
Count of elements : 1836
Stream size : 51.1 KiB (0%)
Title : SDH
Language : English
Default : No
Forced : No
Text #4
ID : 9
Format : UTF-8
Codec ID : S_TEXT/UTF8
Codec ID/Info : UTF-8 Plain Text
Duration : 1 h 40 min
Bit rate : 87 b/s
Count of elements : 1837
Stream size : 64.3 KiB (0%)
Title : SDH-Colored
Language : English
Default : No
Forced : No
Menu
00:00:00.000 : en:Chapter 1
00:04:36.318 : en:Chapter 2
00:07:49.302 : en:Chapter 3
00:12:55.525 : en:Chapter 4
00:18:50.004 : en:Chapter 5
00:22:23.008 : en:Chapter 6
00:29:13.085 : en:Chapter 7
00:33:18.830 : en:Chapter 8
00:37:56.399 : en:Chapter 9
00:42:57.825 : en:Chapter 10
00:45:34.357 : en:Chapter 11
00:48:06.675 : en:Chapter 12
00:50:58.806 : en:Chapter 13
00:54:31.685 : en:Chapter 14
00:59:05.959 : en:Chapter 15
01:03:52.787 : en:Chapter 16
01:08:44.787 : en:Chapter 17
01:14:52.279 : en:Chapter 18
01:19:29.348 : en:Chapter 19
01:23:44.770 : en:Chapter 20
01:26:54.751 : en:Chapter 21
01:29:38.832 : en:Chapter 22
01:32:49.272 : en:Chapter 23
01:35:36.648 : en:Chapter 24

Lavhalar

.torrent yuklash

Yuqori tezlikda va bepul ko‘chirish!

Qanday yuklab olinadi? · Torrent nima o‘zi? · Reyting va cheklovlar



So‘ngi marta tahrirlandi: TheLeon (2019-06-15 15:21), Jami tahrirlangan 2 marta
Profil ShX

MRLG

Jins:
Yigit
Staj:
2 yil 1 oy
Xabarlar:
618
Taqiq:

TheLeon, Reliz uchun rahmat. Relizni tuzishda ba'zi xatolar bor. Keyingi safar bunaqa xatolar qilmasligizni so'rayman.
1. Film janri: Melodrama emas. Drama
2. Rejissiyor O'zbekchada va ingliz tilida yozilishi kerak. Mark Uebb / Marc Webb
3. Poster (Muqova) 600x400 px dan yuqori bo'lmasligi kerak.
4. Film sifati WEB-DL emas, BluRay bo'lishi kerak. (har qalay faylda filmni sifati shunday ko'rsatib o'tilgan)
Rejissiyor: Mark Uebb / Marc Webb
Janr: Drama
Sifat: BluRay 1080p
Video: AVC, 1920x800, 23.97fps, 14.2 Mb/s
Audio: MPEG Audio MP3

Mavzu yaratish 14-Iyun-2019 19:59 (5 soat o‘tgach)

Iqitibos

Profil ShX

TheLeon ®

Jins:
Ko‘rsatilmagan
Staj:
1 yil 2 oy
Xabarlar:
3
Taqiq:

Raxmat katta, to'g'irlab qo'yaman

Mavzu yaratish 15-Iyun-2019 15:15 (19 soat o‘tgach)

Iqitibos

Profil ShX
Xabarlarni ko‘rsatish:    

Hozirgi vaqt: 15-Okt 18:19

Vaqtlar farqi: UTC + 5



Siz mavzu yaratishingiz mumkin emas
Siz xabarlarga javob qaytarishingiz mumkin emas
Siz o‘z xabarlaringizni tahrirlashingiz mumkin emas
Siz o‘z xabarlaringizni o‘chirishingiz mumkin emas
Siz so‘rovlarda ovoz berishingiz mumkin emas
Siz xabalarga fayllarni biriktirishingiz mumkin emas
Siz fayllarni ko‘chirishingiz mumkin emas