˂
˃
Tarqatmalar statistikasi
Ko‘chirmoqdaman: [ 4 ]
Ko‘chirib bo‘ldim: [ 46 ]
 
     
 
 

N.U.R.I.K.B.E.K ®

Jins:
Yigit
Staj:
1 yil 11 oy
Xabarlar:
540

Qayerdan: Jizzax. Paxtakor

Taqiq:

Pokemon Detektiv Pikachu | Покемон Детектив Пикачу | Pokémon Detective Pikachu
-Chiqqan yili: 2019
Davlat: AQSH, Yaponiya.
Janr: Fantastik, Hayoliy, Jinoyat, Oilaviy, Sarguzasht.
Davomiyligi: 01:37:22
Tarjima 1: Audio Yo'lak: MY5 O'zbek Tilida
Tarjima 2: Audio Yo'lak: iTunes Rus Tili--Rejissyor: Rob Letterman.--Rollarda: Rayan Reynolds, Jastis Smit, Ketrin Nyuton, Bill Naija, Ken Vatanabe, Chris Gere, Suki Waterhouse, Jozef Simon, Alejandro De Mesa, Rita Ora--Tavsif: Hikoya 21 yoshli o'g'li timni tekshirish uchun maxsus qo'shimcha detektiv Garri Gudmanning sirli yo'qolishi bilan boshlanadi. Tergovga yordam berish, otasining sobiq hamkori, detektiv Pikachu tomonidan amalga oshiriladi-bu o'zi uchun ham sir bo'lgan kulgili, aqlli va yoqimli detektiv. Tim va Pikachu bir-birlari bilan muloqot qilish imkoniga ega ekanliklarini bilib, bu murakkab hikoyani chuqur o'rganish uchun kuchlarni birlashtiradi. Raym Siti neon ko'chalarida dalillarni izlashda — odamlar va pokemonlarning hiper realistik o'yin dunyosida yonma-yon yashaydigan zamonaviy rivojlangan metropoldir-ular pokemonning turli xil turlari bilan tanishadilar va bu tinch-totuv yashashni yo'q qilish va pokemonning butun koinotiga tahdid soladigan dahshatli fitnani ochadilar.--Videoning sifati: WEBRip
Video format: MKV--Video: Xvid 720x300 30.303 fps 1 600 kb/s
Audio: MP3 48000Hz stereo 128kbps O'zbek Tili
Audio 2: Dolby AC3 48000Hz stereo 192kbps Rus Tili--

Media Info

General
Format : Matroska
Format version : Version 4 / Version 2
File size : 1.31 GiB
Duration : 1 h 37 min
Overall bit rate : 1 922 kb/s
Encoded date : UTC 2019-06-14 09:15:09
Writing application : mkvmerge v15.0.0 ('Duel with the Devil') 64-bit
Writing library : libebml v1.3.5 + libmatroska v1.4.5
Video
ID : 1
Format : MPEG-4 Visual
Format profile : Simple@L5
Format settings, BVOP : No
Format settings, QPel : No
Format settings, GMC : No warppoints
Format settings, Matrix : Default (H.263)
Codec ID : V_MS/VFW/FOURCC / XVID
Codec ID/Hint : XviD
Duration : 1 h 37 min
Bit rate : 1 600 kb/s
Width : 720 pixels
Height : 300 pixels
Display aspect ratio : 2.40:1
Frame rate mode : Constant
Frame rate : 30.303 FPS
Color space : YUV
Chroma subsampling : 4:2:0
Bit depth : 8 bits
Scan type : Progressive
Compression mode : Lossy
Bits/(Pixel*Frame) : 0.244
Stream size : 1.09 GiB (83%)
Writing library : Lavc58.1.100
Default : Yes
Forced : No
Audio #1
ID : 2
Format : MPEG Audio
Format version : Version 1
Format profile : Layer 3
Mode : Joint stereo
Mode extension : MS Stereo
Codec ID : A_MPEG/L3
Codec ID/Hint : MP3
Duration : 1 h 37 min
Bit rate mode : Constant
Bit rate : 128 kb/s
Channel(s) : 2 channels
Sampling rate : 48.0 kHz
Frame rate : 41.667 FPS (1152 SPF)
Compression mode : Lossy
Stream size : 89.1 MiB (7%)
Title : O'zbek Tili
Language : Uzbek
Default : Yes
Forced : No
Audio #2
ID : 3
Format : AC-3
Format/Info : Audio Coding 3
Format settings, Endianness : Big
Codec ID : A_AC3
Duration : 1 h 37 min
Bit rate mode : Constant
Bit rate : 192 kb/s
Channel(s) : 2 channels
Channel positions : Front: L R
Sampling rate : 48.0 kHz
Frame rate : 31.250 FPS (1536 SPF)
Bit depth : 16 bits
Compression mode : Lossy
Stream size : 134 MiB (10%)
Title : Rus Tili
Language : Russian
Service kind : Complete Main
Default : No
Forced : No
.torrent yuklash

Yuqori tezlikda va bepul ko‘chirish!

Qanday yuklab olinadi? · Torrent nima o‘zi? · Reyting va cheklovlar

Profil ShX

MRLG

Jins:
Yigit
Staj:
2 yil 2 oy
Xabarlar:
618
Taqiq:

N.U.R.I.K.B.E.K, Audio yo'lak qo'shimchalari ortiqcha. Tarjima 1 va Tarjima 2 bu haqida aytib turibdi.

Mavzu yaratish 14-Iyun-2019 20:04 (7 soat o‘tgach)

Iqitibos

Profil ShX

N.U.R.I.K.B.E.K ®

Jins:
Yigit
Staj:
1 yil 11 oy
Xabarlar:
540

Qayerdan: Jizzax. Paxtakor

Taqiq:

8355N.U.R.I.K.B.E.K, Audio yo'lak qo'shimchalari ortiqcha. Tarjima 1 va Tarjima 2 bu haqida aytib turibdi.
Audio yõlakdagi bor malumot bu borini olib qõyaman doim.

Mavzu yaratish 14-Iyun-2019 21:22 (1 soat 17 daqiqa o‘tgach)

Iqitibos

Profil ShX

AxeL

Jins:
Yigit
Staj:
1 yil 7 oy
Xabarlar:
756

Qayerdan: Gronland, Norway

Taqiq:

8352
Chiqqan yili: 2019
Davlat: AQSH, Yaponiya.
Janr: Fantastik, Hayoliy, Jinoyat, Oilaviy, Sarguzasht.
Davomiyligi: 01:37:22
Tarjima 1: Audio Yo'lak: MY5 O'zbek Tilida
Tarjima 2: Audio Yo'lak: iTunes Rus Tili
Shu narsalar nazarda tutilmoqda

Mavzu yaratish 14-Iyun-2019 22:19 (57 daqiqa o‘tgach)

Iqitibos

Profil ShX

Topik 2019 yil kinofilmlari (Premyeralar) forumidan Vaqtincha tarqatmalar ga ko‘chirildi
AxeL

Mavzu yaratish 15-Iyun-2019 22:26 (1 kun o‘tgach)

Xabarlarni ko‘rsatish:    

Hozirgi vaqt: 22-Okt 08:48

Vaqtlar farqi: UTC + 5



Siz mavzu yaratishingiz mumkin emas
Siz xabarlarga javob qaytarishingiz mumkin emas
Siz o‘z xabarlaringizni tahrirlashingiz mumkin emas
Siz o‘z xabarlaringizni o‘chirishingiz mumkin emas
Siz so‘rovlarda ovoz berishingiz mumkin emas
Siz xabalarga fayllarni biriktirishingiz mumkin emas
Siz fayllarni ko‘chirishingiz mumkin emas