˂
˃
Tarqatmalar statistikasi
Ko‘chirmoqdaman: [ 4 ]
Ko‘chirib bo‘ldim: [ 38 ]
 
     
 
 

MRLG ®

Jins:
Yigit
Staj:
2 yil 1 oy
Xabarlar:
618
Taqiq:

Terminator 3: Mashinalar isyoni
Терминатор 3: Восстание машин
Terminator 3: Rise of the Machines

Chiqqan yili: 2003
Davlat: AQSH, Germaniya, Buyuk Britaniya
Janr: jangari, fantastika, triller
Davomiyligi: 01:49:06
Tarjima #1: Professional dublyaj kadr ortidan - O'zbek tilida
Tarjima #2: CEE dublyaji - [Litsenziya] Rus tilida
Subtitrlar: RUS / ENG-Rejissyor: Jonatan Mostou / Jonathan Mostow--Rollarda: Arnold Shvarsenegger, Nik Stal, Kler Deyns, Kristanna Loken, Devid Endryus, Mark Famigletti, Erl Boen, Moyra Xarris, Chopper Bernet, Kristofer Louford, Kerolin Xennesi, Djey Akovone--Tavsif: Jon Konnor Qiyomat kunini oldini olishi va insoniyatni ommaviy qirg'indan qutqarishga yordam berganidan beri o'n yil o'tdi. Endi u 25 yoshda, Konnor "hamma kabi" yashamaydi - uning uyi yo'q , kredit kartalari yo'q, mobil telefon yo'q va hech qanday ishi yo'q.-- -Sifat: BDRip-AVC
Format: MKV
Video: AVC, 1024x422 (2.40:1), 2322 kbps, 23,976 fps, 0,224 bpp
Audio №1: Uzbek / MP3 / 2.0 / 48 kHz / 128 kbps /
Audio №2: RUS / AC3 / 5.1 / 48 kHz / 448 kbps /
Audio №3: ENG / AC3 / 5.1 / 48 kHz / 448 kbps /-

Media Info

General
Unique ID                                : 170697630642086276026436882785974834029 (0x806B2AF6D69F647D8716740CAD2B536D)
Complete name                            : D:\Кино\Дубляж фильмлар\HD Films Collection\Terminator.3.2003.BDRip-AVC.-[MRLG].mkv
Format                                   : Matroska
Format version                           : Version 2
File size                                : 2.55 GiB
Duration                                 : 1 h 49 min
Overall bit rate                         : 3 347 kb/s
Encoded date                             : UTC 2019-06-01 13:51:01
Writing application                      : mkvmerge v7.8.0 ('River Man') 32bit built on Apr  3 2015 12:11:22
Writing library                          : libebml v1.3.1 + libmatroska v1.4.2
Video
ID                                       : 1
Format                                   : AVC
Format/Info                              : Advanced Video Codec
Format profile                           : High@L4.1
Format settings, CABAC                   : Yes
Format settings, ReFrames                : 8 frames
Codec ID                                 : V_MPEG4/ISO/AVC
Duration                                 : 1 h 49 min
Bit rate                                 : 2 322 kb/s
Width                                    : 1 024 pixels
Height                                   : 422 pixels
Display aspect ratio                     : 2.40:1
Frame rate mode                          : Constant
Frame rate                               : 23.976 (24000/1001) FPS
Color space                              : YUV
Chroma subsampling                       : 4:2:0
Bit depth                                : 8 bits
Scan type                                : Progressive
Bits/(Pixel*Frame)                       : 0.224
Stream size                              : 1.72 GiB (67%)
Title                                    : Rip by DenisNN
Writing library                          : x264 core 116 r2074 2641b9e
Encoding settings                        : cabac=1 / ref=8 / deblock=1:-3:-3 / analyse=0x3:0x133 / me=umh / subme=10 / psy=1 / psy_rd=1.00:0.00 / mixed_ref=1 / me_range=32 / chroma_me=1 / trellis=2 / 8x8dct=1 / cqm=0 / deadzone=21,11 / fast_pskip=0 / chroma_qp_offset=3 / threads=3 / sliced_threads=0 / nr=0 / decimate=1 / interlaced=0 / bluray_compat=0 / constrained_intra=0 / bframes=7 / b_pyramid=2 / b_adapt=2 / b_bias=0 / direct=3 / weightb=1 / open_gop=0 / weightp=2 / keyint=250 / keyint_min=23 / scenecut=40 / intra_refresh=0 / rc=2pass / mbtree=0 / bitrate=2322 / ratetol=1.0 / qcomp=0.60 / qpmin=10 / qpmax=51 / qpstep=4 / cplxblur=20.0 / qblur=0.5 / ip_ratio=1.40 / pb_ratio=1.30 / aq=2:1.00
Language                                 : English
Default                                  : Yes
Forced                                   : No
Audio #1
ID                                       : 2
Format                                   : MPEG Audio
Format version                           : Version 1
Format profile                           : Layer 3
Mode                                     : Joint stereo
Mode extension                           : MS Stereo
Codec ID                                 : A_MPEG/L3
Codec ID/Hint                            : MP3
Duration                                 : 1 h 49 min
Bit rate mode                            : Constant
Bit rate                                 : 128 kb/s
Channel(s)                               : 2 channels
Sampling rate                            : 48.0 kHz
Compression mode                         : Lossy
Stream size                              : 99.9 MiB (4%)
Title                                    : UzDub | MRLG
Writing library                          : LAME3.100Є
Language                                 : Uzbek
Default                                  : Yes
Forced                                   : No
Audio #2
ID                                       : 3
Format                                   : AC-3
Format/Info                              : Audio Coding 3
Mode extension                           : CM (complete main)
Format settings, Endianness              : Big
Codec ID                                 : A_AC3
Duration                                 : 1 h 49 min
Bit rate mode                            : Constant
Bit rate                                 : 448 kb/s
Channel(s)                               : 6 channels
Channel positions                        : Front: L C R, Side: L R, LFE
Sampling rate                            : 48.0 kHz
Frame rate                               : 31.250 FPS (1536 spf)
Compression mode                         : Lossy
Stream size                              : 350 MiB (13%)
Title                                    : Дубляж CEE
Language                                 : Russian
Default                                  : No
Forced                                   : No
Audio #3
ID                                       : 4
Format                                   : AC-3
Format/Info                              : Audio Coding 3
Mode extension                           : CM (complete main)
Format settings, Endianness              : Big
Codec ID                                 : A_AC3
Duration                                 : 1 h 49 min
Bit rate mode                            : Constant
Bit rate                                 : 448 kb/s
Channel(s)                               : 6 channels
Channel positions                        : Front: L C R, Side: L R, LFE
Sampling rate                            : 48.0 kHz
Frame rate                               : 31.250 FPS (1536 spf)
Compression mode                         : Lossy
Stream size                              : 350 MiB (13%)
Title                                    : Английский
Language                                 : English
Default                                  : No
Forced                                   : No
Text #1
ID                                       : 5
Format                                   : UTF-8
Codec ID                                 : S_TEXT/UTF8
Codec ID/Info                            : UTF-8 Plain Text
Title                                    : Русские
Language                                 : Russian
Default                                  : No
Forced                                   : No
Text #2
ID                                       : 6
Format                                   : UTF-8
Codec ID                                 : S_TEXT/UTF8
Codec ID/Info                            : UTF-8 Plain Text
Title                                    : Русские NeNorMat
Language                                 : Russian
Default                                  : No
Forced                                   : No
Text #3
ID                                       : 7
Format                                   : UTF-8
Codec ID                                 : S_TEXT/UTF8
Codec ID/Info                            : UTF-8 Plain Text
Title                                    : Английский
Language                                 : English
Default                                  : No
Forced                                   : No
Menu
00:00:00.000                             : :Chapter 01
00:00:52.552                             : :Chapter 02
00:02:09.671                             : :Chapter 03
00:02:54.341                             : :Chapter 04
00:03:50.730                             : :Chapter 05
00:05:09.808                             : :Chapter 06
00:06:21.214                             : :Chapter 07
00:07:28.823                             : :Chapter 08
00:08:30.135                             : :Chapter 09
00:09:22.436                             : :Chapter 10
00:11:30.940                             : :Chapter 11
00:15:05.488                             : :Chapter 12
00:16:23.858                             : :Chapter 13
00:18:06.294                             : :Chapter 14
00:18:55.968                             : :Chapter 15
00:20:26.308                             : :Chapter 16
00:22:28.513                             : :Chapter 17
00:23:59.605                             : :Chapter 18
00:24:59.164                             : :Chapter 19
00:26:25.042                             : :Chapter 20
00:27:19.137                             : :Chapter 21
00:29:11.248                             : :Chapter 22
00:29:54.376                             : :Chapter 23
00:32:14.266                             : :Chapter 24
00:34:24.646                             : :Chapter 25
00:35:13.111                             : :Chapter 26
00:36:04.245                             : :Chapter 27
00:38:19.506                             : :Chapter 28
00:40:30.511                             : :Chapter 29
00:42:29.255                             : :Chapter 30
00:45:51.082                             : :Chapter 31
00:48:47.007                             : :Chapter 32
00:51:03.686                             : :Chapter 33
00:52:21.638                             : :Chapter 34
00:55:05.802                             : :Chapter 35
00:56:33.348                             : :Chapter 36
00:58:11.822                             : :Chapter 37
00:59:40.035                             : :Chapter 38
01:00:11.775                             : :Chapter 39
01:02:22.447                             : :Chapter 40
01:03:47.657                             : :Chapter 41
01:06:02.125                             : :Chapter 42
01:07:45.520                             : :Chapter 43
01:09:04.349                             : :Chapter 44
01:12:16.624                             : :Chapter 45
01:14:27.421                             : :Chapter 46
01:15:43.456                             : :Chapter 47
01:19:07.533                             : :Chapter 48
01:20:18.981                             : :Chapter 49
01:21:27.216                             : :Chapter 50
01:22:41.206                             : :Chapter 51
01:23:57.198                             : :Chapter 52
01:25:03.265                             : :Chapter 53
01:25:46.390                             : :Chapter 54
01:26:30.560                             : :Chapter 55
01:27:29.035                             : :Chapter 56
01:29:07.050                             : :Chapter 57
01:31:58.388                             : :Chapter 58
01:33:37.070                             : :Chapter 59
01:34:32.332                             : :Chapter 60
01:35:54.040                             : :Chapter 61
01:37:31.304                             : :Chapter 62
01:39:22.915                             : :Chapter 63
01:41:00.095                             : :Chapter 64
- © Template by MRLG
.torrent yuklash

Yuqori tezlikda va bepul ko‘chirish!

Qanday yuklab olinadi? · Torrent nima o‘zi? · Reyting va cheklovlar

Profil ShX

Daymos

Jins:
Yigit
Staj:
1 yil 5 oy
Xabarlar:
10

Qayerdan: Navoiy

Taqiq:

1.2.4.5 йукми?

Mavzu yaratish 15-Iyun-2019 08:52 (1 kun 12 soat o‘tgach)

Iqitibos

Profil ShX

MRLG ®

Jins:
Yigit
Staj:
2 yil 1 oy
Xabarlar:
618
Taqiq:

Daymos, Hozircha yo'q.

Mavzu yaratish 15-Iyun-2019 12:31 (3 soat o‘tgach)

Iqitibos

Profil ShX
Xabarlarni ko‘rsatish:    

Hozirgi vaqt: 15-Okt 19:12

Vaqtlar farqi: UTC + 5



Siz mavzu yaratishingiz mumkin emas
Siz xabarlarga javob qaytarishingiz mumkin emas
Siz o‘z xabarlaringizni tahrirlashingiz mumkin emas
Siz o‘z xabarlaringizni o‘chirishingiz mumkin emas
Siz so‘rovlarda ovoz berishingiz mumkin emas
Siz xabalarga fayllarni biriktirishingiz mumkin emas
Siz fayllarni ko‘chirishingiz mumkin emas