˂
˃
Tarqatmalar statistikasi
Ko‘chirib bo‘ldim: [ 31 ]
 
     
 
 

AxeL ®

Jins:
Yigit
Staj:
1 yil 7 oy
Xabarlar:
756

Qayerdan: Gronland, Norway

Taqiq:

Trollar / Тролли / Trolls-
Chiqqan yili: 2016
Davlat: AQSH
Janr: multfilm, musiqa, fentezi, komediya, sarguzasht, oilaviy
Davomiyligi: 01:32:27
Tarjima: Professional [Ko'p ovozli] MY5
-Rejissyor: Uolt Dorn, Mike Mitchell / Walt Dohrn, Mike Mitchell
Rollarda:
Anna Kendrik, Jastin Timberleyk, Zoi Deshanel, Kristofer Mins-Plasse, Kristin Baranski, Rassel Brend,...-Tavsif: Rosochka, dunyodagi eng buyuk ajdodlaridan ajralib turadigan hayratlanarli bir sarguzashtga tushib, Tsvetan ismli dunyodagi eng qorong'i trol bilan o'z do'stlarini dahshatli bergen va ularning lideri King Kingfisher keksalaridan qutqarish uchun o'zining jasur missiyasida muvaffaqiyatga erishish uchun kuchlar bilan qo'shildi. Rozohekning ajablantiradigan sarguzashtlari uning kuchini sinab ko'radi, haqiqiy mohiyatini namoyon qiladi va har qanday vaqtda qo'shiqqa aylanish qobiliyatini tanqid qiladi.-IMDb:6.5
КиноПоиск: 6.6
-Sifat: BDRip 720p HEVC 10bit
Format: MKV
Video: HVC1 1280x544 23.976fps 2 012 Kbps
Audio #1: DTS 48000Hz 6ch 768kbps Rus tilida
Audio #2: MP3 44100Hz stereo 192kbps O'zbek tilida
Subtitr: Ingliz tilida

MediaInfo

General
Unique ID : 320190411854822503068391251401502245812 (0xF0E26E2238DE4ACF2BB723462D5A43B4)
Complete name : D:\Films\Multfilms\HD Video\Trollar.2016.Uzb.Rus.AxeL.HEVC.720p.mkv
Format : Matroska
Format version : Version 4 / Version 2
File size : 1.92 GiB
Duration : 1h 32mn
Overall bit rate : 2 975 Kbps
Movie name : Trolls (2016) - HEVC.CLUB
Encoded date : UTC 2019-05-30 17:06:34
Writing application : mkvmerge v22.0.0 ('At The End Of The World') 64-bit
Writing library : libebml v1.3.5 + libmatroska v1.4.8
Attachements : cover.jpg
Video
ID : 1
Format : HEVC
Format/Info : High Efficiency Video Coding
Format profile : Main 10@L4.1@High
Codec ID : V_MPEGH/ISO/HEVC
Duration : 1h 32mn
Bit rate : 2 012 Kbps
Width : 1 280 pixels
Height : 544 pixels
Display aspect ratio : 2.35:1
Frame rate mode : Constant
Frame rate : 23.976 (24000/1001) fps
Color space : YUV
Chroma subsampling : 4:2:0
Bit depth : 10 bits
Bits/(Pixel*Frame) : 0.121
Stream size : 1.30 GiB (68%)
Title : HEVC.CLUB
Writing library : x265 2.2+22-20217c8af8ac:[Windows][GCC 6.2.0][64 bit] 10bit
Encoding settings : cpuid=1173503 / frame-threads=3 / numa-pools=8 / wpp / no-pmode / no-pme / no-psnr / ssim / log-level=2 / input-csp=1 / input-res=1280x544 / interlace=0 / total-frames=0 / level-idc=41 / high-tier=1 / uhd-bd=0 / ref=6 / no-allow-non-conformance / repeat-headers / annexb / aud / hrd / info / hash=0 / no-temporal-layers / open-gop / min-keyint=23 / keyint=250 / bframes=8 / b-adapt=2 / b-pyramid / bframe-bias=0 / rc-lookahead=60 / lookahead-slices=0 / scenecut=40 / no-intra-refresh / ctu=64 / min-cu-size=8 / no-rect / no-amp / max-tu-size=32 / tu-inter-depth=3 / tu-intra-depth=3 / limit-tu=0 / rdoq-level=1 / signhide / no-tskip / nr-intra=0 / nr-inter=0 / no-constrained-intra / no-strong-intra-smoothing / max-merge=2 / limit-refs=3 / no-limit-modes / me=1 / subme=4 / merange=64 / temporal-mvp / weightp / weightb / no-analyze-src-pics / deblock=-3:-3 / no-sao / no-sao-non-deblock / rd=4 / no-early-skip / no-rskip / no-fast-intra / no-tskip-fast / no-cu-lossless / no-b-intra / rdpenalty=0 / psy-rd=1.60 / psy-rdoq=2.30 / no-rd-refine / analysis-mode=0 / no-lossless / cbqpoffs=0 / crqpoffs=0 / rc=crf / crf=21.0 / qcomp=0.90 / qpstep=6 / stats-write=0 / stats-read=0 / vbv-maxrate=50000 / vbv-bufsize=50000 / vbv-init=0.9 / crf-max=0.0 / crf-min=0.0 / ipratio=1.50 / pbratio=1.00 / aq-mode=1 / aq-strength=0.20 / no-cutree / zone-count=0 / no-strict-cbr / qg-size=32 / no-rc-grain / qpmax=69 / qpmin=0 / sar=1 / overscan=0 / videoformat=5 / range=0 / colorprim=2 / transfer=2 / colormatrix=1 / chromaloc=0 / display-window=0 / max-cll=0,0 / min-luma=0 / max-luma=1023 / log2-max-poc-lsb=8 / vui-timing-info / vui-hrd-info / slices=1 / opt-qp-pps / opt-ref-list-length-pps / no-multi-pass-opt-rps / scenecut-bias=0.05 / no-opt-cu-delta-qp / no-aq-motion
Default : Yes
Forced : Yes
Color range : Limited
Matrix coefficients : BT.709
Audio #1
ID : 2
Format : DTS
Format/Info : Digital Theater Systems
Mode : 16
Format settings, Endianness : Big
Codec ID : A_DTS
Duration : 1h 32mn
Bit rate mode : Constant
Bit rate : 768 Kbps
Channel(s) : 6 channels
Channel positions : Front: L C R, Side: L R, LFE
Sampling rate : 48.0 KHz
Frame rate : 93.750 fps (512 spf)
Bit depth : 24 bits
Compression mode : Lossy
Stream size : 508 MiB (26%)
Title : Dub
Language : Russian
Default : Yes
Forced : No
Audio #2
ID : 4
Format : MPEG Audio
Format version : Version 1
Format profile : Layer 3
Mode : Joint stereo
Mode extension : MS Stereo
Codec ID : A_MPEG/L3
Codec ID/Hint : MP3
Duration : 1h 32mn
Bit rate mode : Constant
Bit rate : 192 Kbps
Channel(s) : 2 channels
Sampling rate : 44.1 KHz
Frame rate : 38.281 fps (1152 spf)
Compression mode : Lossy
Stream size : 127 MiB (6%)
Title : O'zbek tilida (AxeL)
Writing library : LAME3.97
Language : Uzbek
Default : No
Forced : No
Text
ID : 3
Format : UTF-8
Codec ID : S_TEXT/UTF8
Codec ID/Info : UTF-8 Plain Text
Duration : 1h 29mn
Bit rate : 72 bps
Count of elements : 1895
Stream size : 47.6 KiB (0%)
Title : SDH
Language : English
Default : No
Forced : No
.torrent yuklash

Yuqori tezlikda va bepul ko‘chirish!

Qanday yuklab olinadi? · Torrent nima o‘zi? · Reyting va cheklovlar



So‘ngi marta tahrirlandi: AxeL (2019-06-14 20:36), Jami tahrirlangan 1 marta
Profil ShX

Qorbobo

Jins:
Ko‘rsatilmagan
Staj:
8 oy 16 kun
Xabarlar:
17
Taqiq:

ovozi chiqmayapdi

Mavzu yaratish 06-Iyun-2019 22:37 (1 kun 10 soat o‘tgach)

Iqitibos

Profil ShX

AxeL ®

Jins:
Yigit
Staj:
1 yil 7 oy
Xabarlar:
756

Qayerdan: Gronland, Norway

Taqiq:

Qorbobo, menda hammasi joyida, buni qaysi videoplayerda ochyapsiz?

Mavzu yaratish 07-Iyun-2019 08:02 (9 soat o‘tgach)

Iqitibos

Profil ShX

N.U.R.I.K.B.E.K

Jins:
Yigit
Staj:
1 yil 11 oy
Xabarlar:
540

Qayerdan: Jizzax. Paxtakor

Taqiq:

8331ovozi chiqmayapdi
yurakdan xis qiling ag

Mavzu yaratish 07-Iyun-2019 12:58 (4 soat o‘tgach)

Iqitibos

Profil ShX
Xabarlarni ko‘rsatish:    

Hozirgi vaqt: 22-Okt 08:33

Vaqtlar farqi: UTC + 5



Siz mavzu yaratishingiz mumkin emas
Siz xabarlarga javob qaytarishingiz mumkin emas
Siz o‘z xabarlaringizni tahrirlashingiz mumkin emas
Siz o‘z xabarlaringizni o‘chirishingiz mumkin emas
Siz so‘rovlarda ovoz berishingiz mumkin emas
Siz xabalarga fayllarni biriktirishingiz mumkin emas
Siz fayllarni ko‘chirishingiz mumkin emas