˂
˃
Tarqatmalar statistikasi
Ko‘chiraman: [ 1 ]
Ko‘chirmoqdaman: [ 1 ]
Ko‘chirib bo‘ldim: [ 4 ]
 
     
 
 

logan7272 ®

Jins:
Yigit
Staj:
1 yil 6 oy
Xabarlar:
73

Qayerdan: Namangan

Taqiq:

Maftuningman | Мафтунингман
-
Chiqarilgan yil: 1958
Davlat: SSSR
Studio: Uzbekfilm
Janr: Komediya, Musiqa
Davomiyligi: 1:15:24
Tarjima: Orginal o`zbekcha-Rejisyor: Yo'ldosh A'zamov-Rollarda: Klara Jalilov, G'ani A'zamov, Turg'un Azizov, Abbos Bakirov, Sanat divan, Nabi Rahimov, Razzaq Hamroev, Rano Hamroqulova, Saib Xo'jayev, Maryam Yoqubov.-Film haqida: Yangi musiqiy filmning asosiy rollari uchun aktyorlar tanlovi mavjud. Shu maqsadda, direktor va uning yordamchisi Abzalov yosh iste'dod sohiblarini izlab, Samarqand, Buxoro, Xorazm va boshqa joylarda safar ...
Filmning yaratuvchilarning tomoshabin irodasi san'at ixlosmandlari va havaskor oralig'ida bo'ladi. Mualliflar xalq musiqiy madaniyatining yuksalishini namoyish etish uchun oddiy bir voqeaga muhtoj. Musiqiy va qo'shiq bilan chiroyli tarzda zarhal lenta otishdi.-Sifat: DVDRip
Format: MKV-Video: HEVC, 960x720, ~3628 kbps, 25 fps
Audio: AAC LC, 44 kHz, 128 kbps, 2 ch | O'zbek
-

Media Info

General
Unique ID : 219683319920794346473571014911840676770 (0xA54577E9D5B56A278CAAF7937BBAEBA2)
Complete name : Charmed with You [DVD5].mkv
Format : Matroska
Format version : Version 4 / Version 2
File size : 1.98 GiB
Duration : 1 h 15 min
Overall bit rate : 3 760 kb/s
Encoded date : UTC 2019-04-14 17:10:23
Writing application : mkvmerge v32.0.0 ('Astral Progressions') 32-bit
Writing library : libebml v1.3.7 + libmatroska v1.5.0 / Lavf58.12.100
Video
ID : 1
Format : HEVC
Format/Info : High Efficiency Video Coding
Format profile : Main@L3.1@Main
Codec ID : V_MPEGH/ISO/HEVC
Duration : 1 h 15 min
Bit rate : 3 628 kb/s
Width : 960 pixels
Height : 720 pixels
Display aspect ratio : 4:3
Frame rate mode : Constant
Frame rate : 25.000 FPS
Color space : YUV
Chroma subsampling : 4:2:0
Bit depth : 8 bits
Bits/(Pixel*Frame) : 0.210
Stream size : 1.91 GiB (97%)
Writing library : x265 1.9:[Windows][GCC 4.9.3][32 bit] 8bit
Encoding settings : wpp / ctu=64 / min-cu-size=8 / max-tu-size=32 / tu-intra-depth=1 / tu-inter-depth=1 / me=1 / subme=2 / merange=57 / no-rect / no-amp / max-merge=2 / temporal-mvp / no-early-skip / rdpenalty=0 / no-tskip / no-tskip-fast / strong-intra-smoothing / no-lossless / no-cu-lossless / no-constrained-intra / no-fast-intra / open-gop / no-temporal-layers / interlace=0 / keyint=250 / min-keyint=25 / scenecut=40 / rc-lookahead=20 / lookahead-slices=4 / bframes=4 / bframe-bias=0 / b-adapt=2 / ref=3 / limit-refs=3 / no-limit-modes / weightp / no-weightb / aq-mode=1 / qg-size=32 / aq-strength=1.00 / cbqpoffs=0 / crqpoffs=0 / rd=3 / psy-rd=2.00 / rdoq-level=0 / psy-rdoq=0.00 / signhide / deblock / sao / no-sao-non-deblock / b-pyramid / cutree / no-intra-refresh / rc=crf / crf=18.0 / qcomp=0.60 / qpmin=0 / qpmax=51 / qpstep=4 / ipratio=1.40 / pbratio=1.30
Default : Yes
Forced : No
Audio
ID : 2
Format : AAC
Format/Info : Advanced Audio Codec
Format profile : LC
Codec ID : A_AAC
Duration : 1 h 15 min
Bit rate : 129 kb/s
Channel(s) : 2 channels
Channel positions : Front: L R
Sampling rate : 44.1 kHz
Frame rate : 43.066 FPS (1024 spf)
Compression mode : Lossy
Stream size : 69.5 MiB (3%)
Writing library : Lavc58.18.100 aac
Default : Yes
Forced : No
LAVHALAR
.torrent yuklash

Yuqori tezlikda va bepul ko‘chirish!

Qanday yuklab olinadi? · Torrent nima o‘zi? · Reyting va cheklovlar

Profil ShX

logan7272 ®

Jins:
Yigit
Staj:
1 yil 6 oy
Xabarlar:
73

Qayerdan: Namangan

Taqiq:

Admin lentaga qoshib quying

Mavzu yaratish 30-May-2019 20:33 (4 daqiqa o‘tgach)

Iqitibos

Profil ShX

Svet

Jins:
Ko‘rsatilmagan
Staj:
1 yil 1 oy
Xabarlar:
8
Taqiq:

качества HEVC, 720P булиши мумкин эмас................

Mavzu yaratish 30-May-2019 21:01 (27 daqiqa o‘tgach)

Iqitibos

Profil ShX

AxeL

Jins:
Yigit
Staj:
1 yil 7 oy
Xabarlar:
756

Qayerdan: Gronland, Norway

Taqiq:

8304качества HEVC, 720P булиши мумкин эмас................
konvert qilingan...

Mavzu yaratish 30-May-2019 21:03 (2 daqiqa o‘tgach)

Iqitibos

Profil ShX

logan7272 ®

Jins:
Yigit
Staj:
1 yil 6 oy
Xabarlar:
73

Qayerdan: Namangan

Taqiq:

8304качества HEVC, 720P булиши мумкин эмас................
bizda hamma narsani iloji bor

Mavzu yaratish 30-May-2019 21:14 (10 daqiqa o‘tgach)

Iqitibos

Profil ShX

Dilshod1

Jins:
Ko‘rsatilmagan
Staj:
1 yil 1 oy
Xabarlar:
4
Taqiq:

Shunchalik ham ko'p xato bo'ladimi?!
Studi(ya): Uzbekfilm
Rollarda: Klara Jalilov(a), G'ani A'zamov, Turg'un Azizov, Abbos Bakirov, San(`)at (Devonov), Nabi Rahimov, Razz(o)q Hamroev, Ra(`)no Hamroqulova, S(o)ib Xo'jayev, Maryam Yoqubov(a).
8302logan7272
O'zbekmisiz o'zi? Nahot san'atimizning shunday darg'alarini bilmasangiz?!

Mavzu yaratish 08-Iyun-2019 11:50 (8 kun o‘tgach)

Iqitibos

Profil ShX
Xabarlarni ko‘rsatish:    

Hozirgi vaqt: 22-Okt 08:18

Vaqtlar farqi: UTC + 5



Siz mavzu yaratishingiz mumkin emas
Siz xabarlarga javob qaytarishingiz mumkin emas
Siz o‘z xabarlaringizni tahrirlashingiz mumkin emas
Siz o‘z xabarlaringizni o‘chirishingiz mumkin emas
Siz so‘rovlarda ovoz berishingiz mumkin emas
Siz xabalarga fayllarni biriktirishingiz mumkin emas
Siz fayllarni ko‘chirishingiz mumkin emas