˂
˃
Tarqatmalar statistikasi
Ko‘chirmoqdaman: [ 1 ]
Ko‘chirib bo‘ldim: [ 17 ]
 
     
 
 

AxeL ®

Jins:
Yigit
Staj:
1 yil 8 oy
Xabarlar:
756

Qayerdan: Gronland, Norway

Taqiq:

Uch Bahodir va Taxt Vorisi / Три богатыря и Наследница престола- Chiqqan yili: 2018
Davlat: Rossiya
Janr: multfilm, sarguzasht, oilaviy
Davomiyligi: 01:21:10
Tarjima: Professional [Ko'p ovozli] O'zbek tilida-Rejissyor: Konstantin Bronzit / Константин Бронзит-Rollarda: Mixail Chernyak, Sergey Makoveskiy, Dmitriy Romashov, Valeriy Solovev, Oleg Kulikovich, Dmitriy Visotskiy, Aleksandr Boyarskiy, Ekaterina Goroxovskaya,...-Tavsif: Shox o'lim to'shagida... Endilikda u o'ziga voris izlamoqda. Xo'sh...voris sifatida kimni tanlarkin? Uch bahodirnimi yoki Zabavani erinimi?...-Sifat: WEB-DLRip-AVC
Format: MKV
Video: MPEG4 Video (H264) 1024x576 25fps 2 349 Kbps
Audio #1: Dolby AC3 48000Hz 6ch 384kbps Rus tilida
Audio #2: MP3 44100Hz stereo 192kbps O'zbek tilida-

MI

General
Unique ID                      : 189205430547474732417391125702806285200
Format                         : Matroska
Format version                 : Version 4 / Version 2
File size                      : 1.66 GiB
Duration                       : 1h 21mn
Overall bit rate               : 2 925 Kbps
Encoded date                   : UTC 2019-05-22 17:34:36
Writing application            : mkvmerge v22.0.0 ('At The End Of The World') 64-bit
Writing library                : libebml v1.3.5 + libmatroska v1.4.8
Video
ID                             : 1
Format                         : AVC
Format/Info                    : Advanced Video Codec
Format profile                 : High@L4.1
Format settings, CABAC         : Yes
Format settings, ReFrames      : 10 frames
Codec ID                       : V_MPEG4/ISO/AVC
Duration                       : 1h 21mn
Bit rate                       : 2 349 Kbps
Width                          : 1 024 pixels
Height                         : 576 pixels
Display aspect ratio           : 16:9
Frame rate mode                : Constant
Frame rate                     : 25.000 fps
Color space                    : YUV
Chroma subsampling             : 4:2:0
Bit depth                      : 8 bits
Scan type                      : Progressive
Bits/(Pixel*Frame)             : 0.159
Stream size                    : 1.33 GiB (80%)
Writing library                : x264 core 146 r2538 121396c
Encoding settings              : cabac=1 / ref=10 / deblock=1:-3:-3 / analyse=0x3:0x113 / me=umh / subme=10 / psy=1 / psy_rd=1.00:0.03 / mixed_ref=1 / me_range=48 / chroma_me=1 / trellis=2 / 8x8dct=1 / cqm=0 / deadzone=21,11 / fast_pskip=1 / chroma_qp_offset=-3 / threads=6 / lookahead_threads=1 / sliced_threads=0 / nr=0 / decimate=1 / interlaced=0 / bluray_compat=0 / constrained_intra=0 / bframes=11 / b_pyramid=2 / b_adapt=2 / b_bias=0 / direct=3 / weightb=1 / open_gop=0 / weightp=2 / keyint=250 / keyint_min=25 / scenecut=40 / intra_refresh=0 / rc_lookahead=40 / rc=2pass / mbtree=0 / bitrate=2349 / ratetol=1.0 / qcomp=0.60 / qpmin=0 / qpmax=69 / qpstep=4 / cplxblur=20.0 / qblur=0.5 / vbv_maxrate=50000 / vbv_bufsize=62500 / nal_hrd=none / filler=0 / ip_ratio=1.40 / pb_ratio=1.30 / aq=1:1.00
Language                       : English
Default                        : Yes
Forced                         : No
Audio #1
ID                             : 2
Format                         : AC-3
Format/Info                    : Audio Coding 3
Mode extension                 : CM (complete main)
Format settings, Endianness    : Big
Codec ID                       : A_AC3
Duration                       : 1h 21mn
Bit rate mode                  : Constant
Bit rate                       : 384 Kbps
Channel(s)                     : 6 channels
Channel positions              : Front: L C R, Side: L R, LFE
Sampling rate                  : 48.0 KHz
Frame rate                     : 31.250 fps (1536 spf)
Compression mode               : Lossy
Stream size                    : 223 MiB (13%)
Title                          : Rus tilida (iTunes)
Language                       : Russian
Default                        : Yes
Forced                         : No
Audio #2
ID                             : 3
Format                         : MPEG Audio
Format version                 : Version 1
Format profile                 : Layer 3
Mode                           : Joint stereo
Codec ID                       : A_MPEG/L3
Codec ID/Hint                  : MP3
Duration                       : 1h 21mn
Bit rate mode                  : Constant
Bit rate                       : 192 Kbps
Channel(s)                     : 2 channels
Sampling rate                  : 44.1 KHz
Frame rate                     : 38.281 fps (1152 spf)
Compression mode               : Lossy
Stream size                    : 111 MiB (7%)
Title                          : O'zbek tilida (AxeL)
Writing library                : LAME3.97
Language                       : Uzbek
Default                        : No
Forced                         : No
.torrent yuklash

Yuqori tezlikda va bepul ko‘chirish!

Qanday yuklab olinadi? · Torrent nima o‘zi? · Reyting va cheklovlar

Profil ShX

atadjanov11

Jins:
Ko‘rsatilmagan
Staj:
1 yil 11 oy
Xabarlar:
7
Taqiq:

Dayte mne skorost pls

Mavzu yaratish 31-May-2019 00:01 (7 kun o‘tgach)

Iqitibos

Profil ShX
Xabarlarni ko‘rsatish:    

Hozirgi vaqt: 09-Dek 20:11

Vaqtlar farqi: UTC + 5



Siz mavzu yaratishingiz mumkin emas
Siz xabarlarga javob qaytarishingiz mumkin emas
Siz o‘z xabarlaringizni tahrirlashingiz mumkin emas
Siz o‘z xabarlaringizni o‘chirishingiz mumkin emas
Siz so‘rovlarda ovoz berishingiz mumkin emas
Siz xabalarga fayllarni biriktirishingiz mumkin emas
Siz fayllarni ko‘chirishingiz mumkin emas