˂
˃
Tarqatmalar statistikasi
Ko‘chiraman: [ 1 ]
Ko‘chirmoqdaman: [ 1 ]
Ko‘chirib bo‘ldim: [ 18 ]
 
     
 
 

MRLG ®

Jins:
Yigit
Staj:
2 yil 3 oy
Xabarlar:
620
Taqiq:

Achchiq yalpiz / Багровая мята / Peppermint -««Har bir intiqomning ta'mi va rangi bor»»- -
Chiqqan yili: 2018
Davlat: AQSH, Gonkong
Janr: jangari, triller, drama
Davomiyligi: 01:42:02
Tarjima #1: Professional ko'p ovozli [MilliyTV] - UZB
Tarjima #2:To'liq dublyaj - [Litsenziya] - RUS
  • Subtitrlar: Inglizcha (Full), Inglizcha (SDH)
- Rejissiyor: Pyer Morel / Pierre Morel- Rollarda:
-Jennifer Garner, kich. Jon Gallaxer, Jon Ortis, Xuan Pablo Raba, Enni Aylonzex, Jeff Xefner, Keyli Fleming, Eddi Shin, Metod Men, Tayson Ritter- Tavsif:
Tizim uning oilasi qotillik qurboniga aylnaganiga indamay ko`z yumganidan so`ng, adolat cho`qqisiga o`zi chiqishga: Sevgan insonlari uchun qasos olish uchun shaharni jinoytchilardan, sotib olingan politsiyachilardan tozalashga qaror qildi. Qasos uning sovuq taomiga aylandi, huddi yalpizli muzqaymoqdek uning qizi sevganidek.- Sifat: BDRip-AVC
Format: MKV
Video: AVC, 1024x428 (2.40:1), 1812 kbps, 23,976 fps, 0,172 bpp
Audio №1: O'zbek tilida / MP3 / 2.0 / 48 kHz / 128 kbps / | UZB
Audio №2: Rus tilida / AC3 / 5.1 / 48 kHz / 448 kbps / | RUS
Audio №3: Ingliz tilida / AC3 / 5.1 / 48 kHz / 448 kbps / | ENG-

Media Info

General
Unique ID                                : 247510315150330094215809604732429142276 (0xBA34C0B42D2AF932B0CD6E5A82A60904)
Complete name                            : D:\Кино\Дубляж фильмлар\HD Films Collection\Achchiq.Yalpiz.2018.BDRip(AVC).-[MRLG].mkv
Format                                   : Matroska
Format version                           : Version 2
File size                                : 2.02 GiB
Duration                                 : 1 h 42 min
Overall bit rate                         : 2 833 kb/s
Movie name                               : Peppermint.2018   #TorpedoUK#
Encoded date                             : UTC 2019-05-11 12:19:16
Writing application                      : mkvmerge v7.8.0 ('River Man') 32bit built on Apr  3 2015 12:11:22
Writing library                          : libebml v1.3.1 + libmatroska v1.4.2
Video
ID                                       : 1
Format                                   : AVC
Format/Info                              : Advanced Video Codec
Format profile                           : High@L4.1
Format settings, CABAC                   : Yes
Format settings, ReFrames                : 10 frames
Codec ID                                 : V_MPEG4/ISO/AVC
Duration                                 : 1 h 42 min
Bit rate                                 : 1 812 kb/s
Width                                    : 1 024 pixels
Height                                   : 428 pixels
Display aspect ratio                     : 2.40:1
Frame rate mode                          : Constant
Frame rate                               : 23.976 (24000/1001) FPS
Color space                              : YUV
Chroma subsampling                       : 4:2:0
Bit depth                                : 8 bits
Scan type                                : Progressive
Bits/(Pixel*Frame)                       : 0.172
Stream size                              : 1.25 GiB (62%)
Writing library                          : x264 core 146 r2538 121396c
Encoding settings                        : cabac=1 / ref=10 / deblock=1:-3:-3 / analyse=0x3:0x113 / me=umh / subme=11 / psy=1 / psy_rd=0.98:0.04 / mixed_ref=1 / me_range=48 / chroma_me=1 / trellis=2 / 8x8dct=1 / cqm=0 / deadzone=21,11 / fast_pskip=1 / chroma_qp_offset=-3 / threads=6 / lookahead_threads=1 / sliced_threads=0 / nr=0 / decimate=1 / interlaced=0 / bluray_compat=0 / constrained_intra=0 / bframes=11 / b_pyramid=2 / b_adapt=2 / b_bias=0 / direct=3 / weightb=1 / open_gop=0 / weightp=2 / keyint=240 / keyint_min=23 / scenecut=40 / intra_refresh=0 / rc_lookahead=40 / rc=2pass / mbtree=0 / bitrate=1812 / ratetol=1.0 / qcomp=0.60 / qpmin=0 / qpmax=69 / qpstep=4 / cplxblur=20.0 / qblur=0.5 / vbv_maxrate=50000 / vbv_bufsize=62500 / nal_hrd=none / filler=0 / ip_ratio=1.40 / pb_ratio=1.30 / aq=1:1.00
Language                                 : English
Default                                  : Yes
Forced                                   : No
Audio #1
ID                                       : 2
Format                                   : MPEG Audio
Format version                           : Version 1
Format profile                           : Layer 3
Mode                                     : Joint stereo
Codec ID                                 : A_MPEG/L3
Codec ID/Hint                            : MP3
Duration                                 : 1 h 42 min
Bit rate mode                            : Constant
Bit rate                                 : 128 kb/s
Channel(s)                               : 2 channels
Sampling rate                            : 48.0 kHz
Compression mode                         : Lossy
Stream size                              : 93.4 MiB (5%)
Title                                    : MilliyTV | MRLG
Writing library                          : LAME3.100Є
Language                                 : Uzbek
Default                                  : Yes
Forced                                   : No
Audio #2
ID                                       : 3
Format                                   : AC-3
Format/Info                              : Audio Coding 3
Mode extension                           : CM (complete main)
Format settings, Endianness              : Big
Codec ID                                 : A_AC3
Duration                                 : 1 h 42 min
Bit rate mode                            : Constant
Bit rate                                 : 448 kb/s
Channel(s)                               : 6 channels
Channel positions                        : Front: L C R, Side: L R, LFE
Sampling rate                            : 48.0 kHz
Frame rate                               : 31.250 FPS (1536 spf)
Compression mode                         : Lossy
Stream size                              : 327 MiB (16%)
Title                                    : Лицензия
Language                                 : Russian
Default                                  : No
Forced                                   : No
Audio #3
ID                                       : 4
Format                                   : AC-3
Format/Info                              : Audio Coding 3
Mode extension                           : CM (complete main)
Format settings, Endianness              : Big
Codec ID                                 : A_AC3
Duration                                 : 1 h 42 min
Bit rate mode                            : Constant
Bit rate                                 : 448 kb/s
Channel(s)                               : 6 channels
Channel positions                        : Front: L C R, Side: L R, LFE
Sampling rate                            : 48.0 kHz
Frame rate                               : 31.250 FPS (1536 spf)
Compression mode                         : Lossy
Stream size                              : 327 MiB (16%)
Title                                    : [Original]
Language                                 : English
Default                                  : No
Forced                                   : No
Text #1
ID                                       : 5
Format                                   : UTF-8
Codec ID                                 : S_TEXT/UTF8
Codec ID/Info                            : UTF-8 Plain Text
Title                                    : Full
Language                                 : English
Default                                  : No
Forced                                   : No
Text #2
ID                                       : 6
Format                                   : UTF-8
Codec ID                                 : S_TEXT/UTF8
Codec ID/Info                            : UTF-8 Plain Text
Title                                    : SDH
Language                                 : English
Default                                  : No
Forced                                   : No
Menu
00:00:00.000                             : :Глава 01
00:05:49.474                             : :Глава 02
00:09:23.854                             : :Глава 03
00:14:09.598                             : :Глава 04
00:20:52.000                             : :Глава 05
00:26:34.593                             : :Глава 06
00:30:55.311                             : :Глава 07
00:35:11.692                             : :Глава 08
00:40:33.097                             : :Глава 09
00:45:56.795                             : :Глава 10
00:51:05.228                             : :Глава 11
00:56:15.872                             : :Глава 12
01:01:48.663                             : :Глава 13
01:05:45.107                             : :Глава 14
01:11:02.007                             : :Глава 15
01:16:12.401                             : :Глава 16
01:19:50.243                             : :Глава 17
01:25:28.832                             : :Глава 18
01:30:58.244                             : :Глава 19
01:35:04.573                             : :Глава 20
SKRINSHOTLAR
- © Template by MRLG
.torrent yuklash

Yuqori tezlikda va bepul ko‘chirish!

Qanday yuklab olinadi? · Torrent nima o‘zi? · Reyting va cheklovlar

Profil ShX

XVII

Jins:
Yigit
Staj:
1 yil 8 oy
Xabarlar:
143

Qayerdan: Surkhandarya

Taqiq:

Nega posterdagi yozuvlar rus tilida, bu sayt uzbek tildiagi sayt emasmidi?))

Mavzu yaratish 21-May-2019 21:15 (3 soat o‘tgach)

Iqitibos

Profil ShX

N.U.R.I.K.B.E.K

Jins:
Yigit
Staj:
2 yil 1 oy
Xabarlar:
565

Qayerdan: Jizzax. Paxtakor

Taqiq:

XVII, sizga kino muhimi yoki posteri

Mavzu yaratish 21-May-2019 22:00 (44 daqiqa o‘tgach)

Iqitibos

Profil ShX

XVII

Jins:
Yigit
Staj:
1 yil 8 oy
Xabarlar:
143

Qayerdan: Surkhandarya

Taqiq:

8273XVII, sizga kino muhimi yoki posteri
menga uzbek tili muhimroq!!

Mavzu yaratish 22-May-2019 13:22 (15 soat o‘tgach)

Iqitibos

Profil ShX

N.U.R.I.K.B.E.K

Jins:
Yigit
Staj:
2 yil 1 oy
Xabarlar:
565

Qayerdan: Jizzax. Paxtakor

Taqiq:

8274
8273XVII, sizga kino muhimi yoki posteri
menga uzbek tili muhimroq!!
unda boshqanarsaga etibor bermay chalg'imay kinodan bahramand bo'ling

Mavzu yaratish 22-May-2019 14:51 (1 soat 28 daqiqa o‘tgach)

Iqitibos

Profil ShX

Soft-Release

Jins:
Yigit
Staj:
1 yil 9 oy
Xabarlar:
845

Qayerdan: Kattakurgan

Taqiq:

8275
8274
8273XVII, sizga kino muhimi yoki posteri
menga uzbek tili muhimroq!!
unda boshqanarsaga etibor bermay chalg'imay kinodan bahramand bo'ling
N.U.R.I.K.B.E.K, aa Gapni Ham Yedirasizda Har Doimkidek! ag

Mavzu yaratish 23-May-2019 00:43 (9 soat o‘tgach)

Iqitibos

Profil ShX
Xabarlarni ko‘rsatish:    

Hozirgi vaqt: 16-Dek 04:39

Vaqtlar farqi: UTC + 5



Siz mavzu yaratishingiz mumkin emas
Siz xabarlarga javob qaytarishingiz mumkin emas
Siz o‘z xabarlaringizni tahrirlashingiz mumkin emas
Siz o‘z xabarlaringizni o‘chirishingiz mumkin emas
Siz so‘rovlarda ovoz berishingiz mumkin emas
Siz xabalarga fayllarni biriktirishingiz mumkin emas
Siz fayllarni ko‘chirishingiz mumkin emas